Marvel's Avengers Deluxe Edition (супер цена) 159р. Внимание количество ограничено!!!

2 сезон

iTunes

iTunes

1

iTunes

iTunes

iTunes

WEBRip

iTunes

30
pack

Новость дня

ВАЖНО

!!Акция!!

Alien_RageХит недели

RePack

Horizon Zero Dawn

ИГРА 18+

pack

RePack

jed

!!Акция!!

Alien_Rage

RePack

fifa19

RePack

Assassins Creed: Odyssey

RePack

NEED FOR SPEED™ PAYBACK

4 сезон

9 сезон

Бесстыжие 9 сезон

Все сериалы

все сериалы на PB.wtf

RePack

FAR CRY 5
  

Новогодний переполох (Кирилл Папакуль) [2017, Россия, Комедия, семейный, WEB-DL 1080p] [iTunes] piratbit.pw

Новогодний переполох через торрент piratbit.pw

Размер: 2.85 GB | Добавлен: 2 года 7 мес. назад | Торрент скачан:434 раза
Скачать  

30-01-2018 00:06 Новогодний переполох Скачать торрент  

Новогодний переполох


  • Год выпуска: 2017
  • Страна: Россия
  • Жанр: Комедия, семейный
  • Продолжительность: 01:20:25
  • Перевод: Не требуется [Русский] [iTunes]
  • Режиссер: Кирилл Папакуль
  • В ролях:
    Владимир Меньшов, Константин Крюков, Анастасия Макеева, Ян Цапник, Инга Оболдина, Иван Пышненко, Екатерина Гордиенко, Эрик Тевосов, Мария Вэй, Ренат Мухамбаев



  • Наверняка вы давно не играли в снежки... А в крокодила? Как ни странно, но именно этим вынуждены заниматься обитатели усадьбы Морозовых, потому что на кону отцовское наследство. И в этой нешуточной борьбе в ход идут любые средства. А средний сын Дима, неисправимый авантюрист, даже умудрился привезти с собой фиктивную семью. Только вот глава семейства, своенравный отставной генерал Георгий Иванович Морозов, даже не подозревает, что далеко не любовь к семейным традициям привела в дом всех членов семьи.
  • Рейтинг:


  • Качество: WEB-DL 1080p
  • Формат: :MKV
  • Видео кодек: AVC
  • Аудио кодек: AC3
  • Видео: 4696 Кбит/сек, 1920*804 (2,40:1), в 25,000 кадров/сек, AVC
  • Аудио: 384 Кбит/сек, 48,0 КГц, 16 бит, 6 каналов, AC-3

    Общее
    Уникальный идентификатор : 195355119541823020836536182863181093808 (0x92F807070FA71D0EB590EE35CC9F9BB0)
    Полное имя : F:\Novogodniy.perepoloh.2O17.O.WEB-DL.1O8Op.mkv
    Формат : Matroska
    Версия формата : Version 2
    Размер файла : 2,85 Гбайт
    Продолжительность : 1 ч. 20 м.
    Общий поток : 5082 Кбит/сек
    Дата кодирования : UTC 2018-01-29 21:04:27
    Программа кодирования : mkvmerge v8.3.0 ('Over the Horizon') 64bit
    Библиотека кодирования : libebml v1.3.1 + libmatroska v1.4.2

    Видео
    Идентификатор : 1
    Формат : AVC
    Формат/Информация : Advanced Video Codec
    Профиль формата : High@L4
    Настройки формата : CABAC / 5 Ref Frames
    Параметр CABAC формата : Да
    Параметр RefFrames формата : 5 кадров
    Идентификатор кодека : V_MPEG4/ISO/AVC
    Продолжительность : 1 ч. 20 м.
    Битрейт : 4696 Кбит/сек
    Ширина : 1920 пикселей
    Высота : 804 пикселя
    Соотношение сторон : 2,40:1
    Режим частоты кадров : Постоянный
    Частота кадров : 25,000 кадров/сек
    Цветовое пространство : YUV
    Субдискретизация насыщенности : 4:2:0
    Битовая глубина : 8 бит
    Тип развёртки : Прогрессивная
    Бит/(Пиксели*Кадры) : 0.122
    Размер потока : 2,64 Гбайт (92%)
    Язык : English
    Default : Да
    Forced : Нет
    Цветовой диапазон : Limited
    Основные цвета : BT.709
    Характеристики трансфера : BT.709
    Коэффициенты матрицы : BT.709

    Аудио
    Идентификатор : 2
    Формат : AC-3
    Формат/Информация : Audio Coding 3
    Идентификатор кодека : A_AC3
    Продолжительность : 1 ч. 20 м.
    Вид битрейта : Постоянный
    Битрейт : 384 Кбит/сек
    Каналы : 6 каналов
    Расположение каналов : Front: L C R, Side: L R, LFE
    Частота : 48,0 КГц
    Частота кадров : 31,250 кадров/сек (1536 SPF)
    Битовая глубина : 16 бит
    Метод сжатия : С потерями
    Размер потока : 221 Мбайт (8%)
    Язык : Russian
    ServiceKind/String : Complete Main
    Default : Да
    Forced : Нет

    Меню
    00:00:00.000 : en:Глава 1
    00:05:42.080 : en:Глава 2
    00:11:40.680 : en:Глава 3
    00:17:10.040 : en:Глава 4
    00:21:38.200 : en:Глава 5
    00:28:00.840 : en:Глава 6
    00:33:17.920 : en:Глава 7
    00:40:20.120 : en:Глава 8
    00:46:01.000 : en:Глава 9
    00:51:28.280 : en:Глава 10
    00:58:32.320 : en:Глава 11
    01:02:57.320 : en:Глава 12
    01:08:19.240 : en:Глава 13
    01:12:59.200 : en:Глава 14



    Скриншоты:
    скриншот   скриншот   скриншот   скриншот   скриншот   скриншот   скриншот  
    скриншот  


    piratbit.pw



  • Скачать Новогодний переполох через торрент http://pic1.kartinco.top/images/11/t3naj.jpg Скачать фильм Новогодний переполох через торрент бесплантно в хорошем качестве qw.png Наверняка вы давно не играли в снежки... А в крокодила? Как ни странно, но именно этим вынуждены заниматься обитатели усадьбы ... 9.9 10 10
    Торрент: Зарегистрирован [2018-01-30 00:06] · скачан: 434 раз
    Статус: √ проверено
    Размер: 2.85 GB
    Как cкачать? Как скачать Новогодний переполох через торрент | qTorrent

    % Раздел Тема Автор DL S | L
    Наши новые фильмы 2017 [ 1.37 GB ] Новогодний переполох [2017 Россия WEB-DLRip] GEKADOL Скачать
    1 | 0
    Наши фильмы (HD, WEB-DL 720p, 1080p) [ 2.47 GB ] Новогодний переполох [2017 WEB-DL 720p] bober100 Скачать
    1 | 0
    Наши новые фильмы 2017 [ 700 MB ] Новогодний переполох [2017 WEB-DLRip] bober100 Скачать
    1 | 0
    Наши сериалы [ 2.06 GB ] Новогодний переполох / [2012 SATRip] -=Cherry=- Скачать
    1 | 0

    28-11-2019 20:33  

    Отключить всю рекламу на сайте

      Дорогой пользователь! Огромная просьба, поблагодарите релизера, оцените раздачу и оставьте свои комментарий, если Вы скачали Новогодний переполох через торрент бесплатно! Внесите свою лепту в развитие PiratBit!
      Комментировать посты могут только пользователи прошедшие не сложную регистрацию
      Показать сообщения:    

      Новогодний переполох через торрент
      Скачать бесплатно Новогодний переполох
      Новогодний переполох скачать торрент
      Новогодний переполох смотреть онлайн
      Cкачать фильм Новогодний переполох бесплатно
      Новогодний переполох скачать торрент в хорошем качестве
      Новогодний переполох смотреть онлайн бесплатно в хорошем качестве


      Вы не можете начинать темы
      Вы не можете отвечать на сообщения
      Вы не можете редактировать свои сообщения
      Вы не можете удалять свои сообщения
      Вы не можете голосовать в опросах
      Вы не можете прикреплять файлы к сообщениям
      Вы можете скачивать файлы