1 сезон

1 сезон

iTunes

1

КиноПоиск HD

Кинопоиск HD

iTunes

13

1 сезон

RePack

30

Deluxe

ВАЖНО

ИГРА 18+

pack

RePack

MK11
pack

Легкие деньги

RePack

jed

RePack

fifa19

RePack

RDR2

RePack

NEED FOR SPEED™ PAYBACK

4 сезон

9 сезон

Бесстыжие 9 сезон

Все сериалы

все сериалы на PB.wtf

RePack

FAR CRY 5
  
Magnet ссылка

Класс / Klass (Ильмар Рааг / Ilmar Raag) [2007, драма, BDRip-AVC] MVO [Лицензия] piratbit.pw

Класс через торрент piratbit.pw

Раздают: 1 [ 0 KB/s ]
Размер: 1.49 GB | Добавлен: 3 года 3 мес. назад | Торрент скачан:43 раза
Скачать  

29-01-2018 11:22 Класс Скачать торрент  

Класс
Klass

«Я не умру вам назло…»


Страна: Эстония
Жанр: драма

Год выпуска: 2007
Продолжительность: 01:37:35

Перевод: Профессиональный (многоголосый, закадровый) [DVD R5]
Субтитры: русские (полные, 2 вида)
Оригинальная аудиодорожка: нет

Режиссер: Ильмар Рааг / Ilmar Raag

В ролях: Валло Кирс, Пярт Уусберг, Лаури Педайя, Паула Солвак, Микк Мяги, Риина Риес, Йонас Паас, Кади Метсла, Трийн Тенсо, Вирго Эрнитс, Карл Сакритс, Лиина Йонас

Описание:
Обычная эстонская школа, выпускной класс. Парень по имени Йозеп постоянно терпит насмешки и издевательства со стороны одноклассников. Никогда не отвечая на выпады, он провоцирует их заходить в глупых «шутках» все дальше и дальше, до тех пор, пока за него не заступился один из бывших насмешников - Каспар. В классе начинается противостояние, которое постепенно накаляется, приближая неминуемую развязку...



Релиз:

Автор рипа: stalkerok | Моя группа

Сэмпл

Качество видео: BDRip-AVC [BDRemux 1080i @ arxivariys [The Class 2007 1080i CZE Blu-ray AVC DD 5.1]]
Формат видео: MKV
Видео кодек: AVC
Аудио кодек: AC3
Видео: 1991 Кбит/сек, 1016x570 (16:9), 25 кадр/сек, AVC
Аудио: русский, 192 Кбит/сек, 48 КГц, 2.0, AC3
Навигация по главам: есть

---[Information] [28.01.2018 18:38:21] x264 [info]: frame I:1059 Avg QP:18.05 size: 43049
---[Information] [28.01.2018 18:38:21] x264 [info]: frame P:32886 Avg QP:19.69 size: 20002
---[Information] [28.01.2018 18:38:21] x264 [info]: frame B:112434 Avg QP:21.76 size: 6708

General
Unique ID : 230921112657472641063945272939306676282 (0xADB9C9DF732AEE7EA983D3A9C365F03A)
Complete name : M:\$new\Klass 2007\Klass.2007.BDRip-AVC.RUS.stalkerok.new-team.mkv
Format : Matroska
Format version : Version 4 / Version 2
File size : 1.49 GiB
Duration : 1 h 37 min
Overall bit rate : 2 185 kb/s
Movie name : Klass (2007) (Rip by stalkerok)
Encoded date : UTC 2018-01-28 17:46:42
Writing application : mkvmerge v8.6.1 ('Flying') 64bit
Writing library : libebml v1.3.3 + libmatroska v1.4.4

Video
ID : 1
Format : AVC
Format/Info : Advanced Video Codec
Format profile : High@L4.1
Format settings, CABAC : Yes
Format settings, ReFrames : 12 frames
Codec ID : V_MPEG4/ISO/AVC
Duration : 1 h 37 min
Bit rate : 1 991 kb/s
Width : 1 016 pixels
Height : 570 pixels
Display aspect ratio : 16:9
Frame rate mode : Constant
Frame rate : 25.000 FPS
Color space : YUV
Chroma subsampling : 4:2:0
Bit depth : 8 bits
Scan type : Progressive
Bits/(Pixel*Frame) : 0.138
Stream size : 1.36 GiB (91%)
Title : Klass (2007) (Rip by stalkerok)
Writing library : x264 core 152 r2851kMod ba24899
Encoding settings : cabac=1 / ref=12 / deblock=1:-3:-2 / analyse=0x3:0x133 / me=umh / subme=11 / psy=1 / fade_compensate=0.00 / psy_rd=1.00:0.00 / mixed_ref=1 / me_range=32 / chroma_me=1 / trellis=2 / 8x8dct=1 / cqm=0 / deadzone=21,11 / fast_pskip=0 / chroma_qp_offset=-2 / threads=12 / lookahead_threads=3 / sliced_threads=0 / nr=0 / decimate=1 / interlaced=0 / bluray_compat=0 / constrained_intra=0 / bframes=14 / b_pyramid=2 / b_adapt=2 / b_bias=0 / direct=3 / weightb=1 / open_gop=0 / weightp=2 / keyint=250 / keyint_min=25 / scenecut=40 / intra_refresh=0 / rc_lookahead=60 / rc=crf / mbtree=0 / crf=19.9000 / qcomp=0.65 / qpmin=0 / qpmax=69 / qpstep=4 / vbv_maxrate=50000 / vbv_bufsize=62500 / crf_max=0.0 / nal_hrd=none / filler=0 / ip_ratio=1.40 / pb_ratio=1.30 / aq=3:0.90 / zones=140252,146378,q=36
Default : Yes
Forced : No

Audio
ID : 2
Format : AC-3
Format/Info : Audio Coding 3
Mode extension : CM (complete main)
Format settings, Endianness : Big
Codec ID : A_AC3
Duration : 1 h 37 min
Bit rate mode : Constant
Bit rate : 192 kb/s
Channel(s) : 2 channels
Channel positions : Front: L R
Sampling rate : 48.0 kHz
Frame rate : 31.250 FPS (1536 spf)
Compression mode : Lossy
Stream size : 134 MiB (9%)
Title : MVO, R5
Language : Russian
Default : Yes
Forced : No

Text #1
ID : 3
Format : UTF-8
Codec ID : S_TEXT/UTF8
Codec ID/Info : UTF-8 Plain Text
Duration : 1 h 34 min
Bit rate : 65 b/s
Count of elements : 850
Stream size : 45.2 KiB (0%)
Title : R5
Language : Russian
Default : No
Forced : No

Text #2
ID : 4
Format : UTF-8
Codec ID : S_TEXT/UTF8
Codec ID/Info : UTF-8 Plain Text
Duration : 1 h 33 min
Bit rate : 59 b/s
Count of elements : 777
Stream size : 40.4 KiB (0%)
Language : Russian
Default : No
Forced : No

Menu
00:00:00.000 : :Chapter 01
00:15:49.800 : :Chapter 02
00:31:33.760 : :Chapter 03
00:46:16.000 : :Chapter 04
01:06:18.600 : :Chapter 05
01:21:32.720 : :Chapter 06
скриншот   скриншот   скриншот   скриншот   скриншот   скриншот   скриншот   скриншот  
piratbit.pw



Скачать Класс через торрент http://i6.imageban.ru/out/2017/09/18/2ff75c0c358795c5946784cc1680714d.png Скачать фильм Класс через торрент бесплантно в хорошем качестве Описание:Обычная эстонская школа, выпускной класс. Парень по имени Йозеп постоянно терпит насмешки и издевательства со стороны ... 5.5 10 2
Info! Золотая раздача, скачанное не засчитывается.
Торрент: Зарегистрирован [2018-01-29 11:22] · скачан: 43 раз
Статус: √ проверено
Размер: 1.49 GB
Как cкачать? Как скачать Класс через торрент | UTorrent

% Раздел Тема Автор DL S | L
Фильмы (WEB-DL 720p, 1080p) [ 10.86 GB ] Летающий класс / Das fliegende Klassenzimmer [2003 WEB-DL 1080p] MVO bober100 Скачать
1 | 0
T Фильмы (мультфильмы) cо спонсором показа (Новинки AVI/MKV) [ 2.05 GB ] Встреча одноклассников / Klassentreffen 1.0 [2018 HDRip] DUB [Line] bober100 Скачать
1 | 0
T Фильмы (мультфильмы) cо спонсором показа (Новинки AVI/MKV) [ 1.37 GB ] Встреча одноклассников / Klassentreffen 1.0 [2018 HDRip] DUB [Line] bober100 Скачать
1 | 0
Фильмы 2006-2008 [ 746 MB ] Класс / Klass [2007 BDRip-AVC] MVO [] sokol_ok Скачать
2 | 0
Фильмы 2006-2008 [ 2.16 GB ] Класс / Klass [2007 BDRip-AVC] MVO [] sokol_ok Скачать
2 | 0
Фильмы 2006-2008 [ 1.45 GB ] Класс / Klass [2007 Эстония BDRip] MVO Ворон Скачать
1 | 0
Фильмы (Blu-ray, BD-Remux, HDDVD) [ 14.59 GB ] Класс / Klass [2007 BD-Remux MVO ] VintMosina Скачать
1 | 0

28-11-2019 20:33  

Отключить всю рекламу на сайте

    Дорогой пользователь! Огромная просьба, поблагодарите релизера, оцените раздачу и оставьте свои комментарий, если Вы скачали Класс через торрент бесплатно! Внесите свою лепту в развитие PiratBit!
    Комментировать посты могут только пользователи прошедшие не сложную регистрацию
    Показать сообщения:    

    Класс через торрент
    Скачать бесплатно Класс
    Класс скачать торрент
    Класс смотреть онлайн
    Cкачать фильм Класс бесплатно
    Класс скачать торрент в хорошем качестве
    Класс смотреть онлайн бесплатно в хорошем качестве


    Вы не можете начинать темы
    Вы не можете отвечать на сообщения
    Вы не можете редактировать свои сообщения
    Вы не можете удалять свои сообщения
    Вы не можете голосовать в опросах
    Вы не можете прикреплять файлы к сообщениям
    Вы можете скачивать файлы