Ссылка на приватное зеркало нашего сайта всего за 1$. Внимание количество ограничено!!!

2 сезон

iTunes

iTunes

1

iTunes

iTunes

iTunes

WEBRip

iTunes

30
pack

Вам бонус

ВАЖНО

!!Акция!!

Alien_RageХит недели

RePack

Horizon Zero Dawn

ИГРА 18+

pack

RePack

jed

!!Акция!!

Alien_Rage

RePack

fifa19

RePack

Assassins Creed: Odyssey

RePack

NEED FOR SPEED™ PAYBACK

4 сезон

9 сезон

Бесстыжие 9 сезон

Все сериалы

все сериалы на PB.wtf

RePack

FAR CRY 5
  

Золушка (Надежда Кошеверова, Михаил Шапиро) [1947, мюзикл, фэнтези, мелодрама, WEBRip 1080p] [ЦВЕТНАЯ] Полная версия piratbit.pw

Золушка через торрент piratbit.pw

Размер: 2.78 GB | Добавлен: 2 года 8 мес. назад | Торрент скачан:7 раз
Скачать  

24-01-2018 11:08 Золушка Скачать торрент  

Золушка

Год выпуска: 1947
Страна: СССР
Жанр: мюзикл, фэнтези, мелодрама, комедия, семейный
Продолжительность: 01:21:51
Перевод: Не требуется
Режиссер: Надежда Кошеверова, Михаил Шапиро
В ролях:

Янина Жеймо (Золушка), Алексей Консовский (Принц), Эраст Гарин (Король), Фаина Раневская (Мачеха), Елена Юнгер (Анна, дочь мачехи), Тамара Сезеневская (Марьяна, дочь мачехи), Василий Меркурьев (Лесничий, отец Золушки), Александр Румнев (Па Де Труа), Варвара Мясникова (фея), Игорь Клименков (паж), Сергей Филиппов (Капрал, один из скороходов), Константин Адашевский (Герольд)
Описание:
Основа сюжета - старинный сказочный мотив о трудолюбивой Золушке, злой мачехе и ленивых сестрах. Разумеется, Шварцем переработанный и оживленный до уровня комедии, в которой есть и просто юмор, и злая сатира.

До сих пор этот нежный и добрый фильм продолжает радовать и удивлять больших и маленьких. А вы попробуйте не удивиться тому, что к вам в гости приходит волшебница со своим очаровательным пажом и мановением волшебной палочки превращает ваше рубище в бальное платье, а ваши опорки в хрустальные башмачки. Попробуйте просто и естественно усесться в золоченую тыкву, запряженную мышами, и в этой карете поехать на бал к королю. Попробуйте, наконец, танцевать со сказочным королем и влюбиться в волшебного принца.
Мировая премьера: 16 мая 1947
rating
Релиз от:

Качество: WEBRip 1080p
Формат: MKV
Видео кодек: AVC
Аудио кодек: AC3
Видео: AVC, 1484x1080 (1.374), 4410 kbps, 25 fps, 0,110 bpp
Аудио: AC3 / 2.0 / 48 kHz / 448 kbps /
General
Unique ID : 108618965004744747716400173074130279907 (0x51B74070ECCCA31157420A99FCC61DE3)
Complete name : D:\video\Раздачи\Золушка (1947) ЦВЕТНАЯ полная версия. by WSM.mkv
Format : Matroska
Format version : Version 4 / Version 2
File size : 2.78 GiB
Duration : 1 h 21 min
Overall bit rate : 4 861 kb/s
Movie name : Золушка (1947) ЦВЕТНАЯ by WSM
Encoded date : UTC 2018-01-24 10:47:05
Writing application : mkvmerge v20.0.0 ('I Am The Sun') 64-bit
Writing library : libebml v1.3.5 + libmatroska v1.4.8

Video
ID : 1
Format : AVC
Format/Info : Advanced Video Codec
Format profile : High@L5
Format settings, CABAC : Yes
Format settings, ReFrames : 9 frames
Codec ID : V_MPEG4/ISO/AVC
Duration : 1 h 21 min
Bit rate : 4 411 kb/s
Width : 1 484 pixels
Height : 1 080 pixels
Display aspect ratio : 1.374
Frame rate mode : Constant
Frame rate : 25.000 FPS
Color space : YUV
Chroma subsampling : 4:2:0
Bit depth : 8 bits
Scan type : Progressive
Bits/(Pixel*Frame) : 0.110
Stream size : 2.52 GiB (91%)
Writing library : x264 core 152 r2851 ba24899
Encoding settings : cabac=1 / ref=10 / deblock=1:-3:-3 / analyse=0x3:0x133 / me=umh / subme=9 / psy=0 / mixed_ref=1 / me_range=16 / chroma_me=1 / trellis=1 / 8x8dct=1 / cqm=0 / deadzone=21,11 / fast_pskip=0 / chroma_qp_offset=0 / threads=6 / lookahead_threads=1 / sliced_threads=0 / nr=0 / decimate=0 / interlaced=0 / bluray_compat=0 / constrained_intra=0 / bframes=3 / b_pyramid=1 / b_adapt=1 / b_bias=0 / direct=1 / weightb=1 / open_gop=0 / weightp=2 / keyint=250 / keyint_min=25 / scenecut=40 / intra_refresh=0 / rc_lookahead=60 / rc=crf / mbtree=1 / crf=16.0 / qcomp=0.60 / qpmin=10 / qpmax=69 / qpstep=4 / ip_ratio=1.40 / aq=1:1.00
Default : Yes
Forced : No

Audio
ID : 2
Format : AC-3
Format/Info : Audio Coding 3
Mode extension : CM (complete main)
Format settings, Endianness : Big
Codec ID : A_AC3
Duration : 1 h 21 min
Bit rate mode : Constant
Bit rate : 448 kb/s
Channel(s) : 2 channels
Channel positions : Front: L R
Sampling rate : 48.0 kHz
Frame rate : 31.250 FPS (1536 spf)
Compression mode : Lossy
Stream size : 262 MiB (9%)
Default : Yes
Forced : No
piratbit.pw



Скачать Золушка через торрент http://lostpix.com/img/2018-01/24/couo360yj6297dq628h6hb3t4.png Скачать фильм Золушка через торрент бесплантно в хорошем качестве Описание: Основа сюжета - старинный сказочный мотив о трудолюбивой Золушке, злой мачехе и ленивых сестрах. Разумеется, Шварцем ... 10 10 3
Торрент: Зарегистрирован [2018-01-24 11:08] · скачан: 7 раз
Статус: √ проверено
Размер: 2.78 GB
Как cкачать? Как скачать Золушка через торрент | qTorrent

28-11-2019 20:33  

Отключить всю рекламу на сайте

    Дорогой пользователь! Огромная просьба, поблагодарите релизера, оцените раздачу и оставьте свои комментарий, если Вы скачали Золушка через торрент бесплатно! Внесите свою лепту в развитие PiratBit!
    Комментировать посты могут только пользователи прошедшие не сложную регистрацию
    Показать сообщения:    

    Золушка через торрент
    Скачать бесплатно Золушка
    Золушка скачать торрент
    Золушка смотреть онлайн
    Cкачать фильм Золушка бесплатно
    Золушка скачать торрент в хорошем качестве
    Золушка смотреть онлайн бесплатно в хорошем качестве


    Вы не можете начинать темы
    Вы не можете отвечать на сообщения
    Вы не можете редактировать свои сообщения
    Вы не можете удалять свои сообщения
    Вы не можете голосовать в опросах
    Вы не можете прикреплять файлы к сообщениям
    Вы можете скачивать файлы