1 сезон

1 сезон

iTunes

1

КиноПоиск HD

Кинопоиск HD

iTunes

13

1 сезон

RePack

30

Новинка

ВАЖНО

ИГРА 18+

pack

RePack

MK11
pack

Легкие деньги

RePack

jed

RePack

fifa19

RePack

RDR2

RePack

NEED FOR SPEED™ PAYBACK

4 сезон

9 сезон

Бесстыжие 9 сезон

Все сериалы

все сериалы на PB.wtf

RePack

FAR CRY 5
  
Magnet ссылка

Страх / Angst (Геральд Каргль) [1983, ужасы, триллер, драма, BDRip] [International Full Version] AVO [Юрий Живов] piratbit.pw

Страх через торрент piratbit.pw

Размер: 1.45 GB | Добавлен: 3 года 2 мес. назад | Торрент скачан:12 раз
Скачать  

23-01-2018 16:44 Страх Скачать торрент  

Страх / Angst
Международная полная версия / International Full Version


Год выпуска: 1983
Страна: Австрия
Жанр: ужасы, триллер, драма

Продолжительность: 01:27:03
Перевод: Авторский одноголосый [Юрий Живов]
Режиссер: Геральд Каргль
В ролях:

Эрвин Ледер, Роберт Хунгер-Бюлер (Off-Text, озвучка), Сильвия Рабенрейтер (Daughter (Silvia)), Карин Спрингер (Daughter, озвучка), Эдит Россет (Mother), Жозефина Лаката (Mother, озвучка), Рудольф Готц (Son), Куба (Dog), Ренате Кастелик (Taxi Driver), Хэрман Гройссенбергер (Guest at the Café), Клаудия Шинко (Guest at the Café), Беате Юркович (Guest at the Café)
Описание:
В основу сценария положено реальное дело серийного убийцы Вернера Книзека, а внутренний монолог героя построен на цитатах из признаний другого маньяка, Петера Кюртена, известного так же как «Вампир из Дюссельдорфа».
Рейтинг:

Качество: BDRip
Формат: AVI
Видео: XviD, 720x400 (16:9), 1930 kbps, 23,976 fps, 0,280 bpp
Аудио: AC3 / 5.1 / 48 kHz / 448 kbps /
В данном релизе представлена Полная Международная версия фильма продолжительностью 87 минут, выпущенная независимой американской студией Cult Epics в сентябре 2015
Все версии, гуляющие с переводами по рунету, это урезанные версии продолжительностью 79 минут

General
Complete name : E:\Angst_1983.BDRip.International.cut.avi
Format : AVI
Format/Info : Audio Video Interleave
File size : 1.45 GiB
Duration : 1 h 27 min
Overall bit rate : 2 388 kb/s
Writing application : VirtualDubMod 1.5.10.2 (build 2540/release)
Writing library : VirtualDubMod build 2540/release

Video
ID : 0
Format : MPEG-4 Visual
Format profile : Advanced Simple@L5
Format settings, BVOP : 1
Format settings, QPel : No
Format settings, GMC : No warppoints
Format settings, Matrix : Default (MPEG)
Codec ID : XVID
Codec ID/Hint : XviD
Duration : 1 h 27 min
Bit rate : 1 930 kb/s
Width : 720 pixels
Height : 400 pixels
Display aspect ratio : 16:9
Frame rate : 23.976 (24000/1001) FPS
Color space : YUV
Chroma subsampling : 4:2:0
Bit depth : 8 bits
Scan type : Progressive
Compression mode : Lossy
Bits/(Pixel*Frame) : 0.280
Stream size : 1.17 GiB (81%)
Writing library : XviD 67

Audio
ID : 1
Format : AC-3
Format/Info : Audio Coding 3
Mode extension : CM (complete main)
Format settings, Endianness : Big
Codec ID : 2000
Duration : 1 h 27 min
Bit rate mode : Constant
Bit rate : 448 kb/s
Channel(s) : 6 channels
Channel positions : Front: L C R, Side: L R, LFE
Sampling rate : 48.0 kHz
Frame rate : 31.250 FPS (1536 spf)
Compression mode : Lossy
Stream size : 279 MiB (19%)
Alignment : Split accross interleaves
Interleave, duration : 42 ms (1.00 video frame)
Interleave, preload duration : 500 ms
Title : RUS - AVO - Jivov
piratbit.pw



Скачать Страх через торрент http://i4.imageban.ru/out/2018/01/23/07014c1efde7cd8e4523a2202f177218.jpg Скачать фильм Страх через торрент бесплантно в хорошем качестве Описание: В основу сценария положено реальное дело серийного убийцы Вернера Книзека, а внутренний монолог героя построен на цитатах из ... 10 10 2
Торрент: Зарегистрирован [2018-01-23 16:44] · скачан: 12 раз
Статус: √ проверено
Размер: 1.45 GB
Как cкачать? Как скачать Страх через торрент | UTorrent

% Раздел Тема Автор DL S | L
T Фильмы (мультфильмы) cо спонсором показа (Новинки AVI/MKV) [ 3.04 GB ] Страх - враг в моем дома / Angst - der Feind in meinem Haus [2017 HDTVRip 720p] MVO ["Синема УС"] bober100 Скачать
1 | 0
T Фильмы (мультфильмы) cо спонсором показа (Новинки AVI/MKV) [ 1.37 GB ] Страх - враг в моем дома / Angst - der Feind in meinem Haus [2017 HDTVRip] MVO ["Синема УС"] bober100 Скачать
1 | 0
T Фильмы (мультфильмы) cо спонсором показа (Новинки AVI/MKV) [ 3.03 GB ] Озноб от страха / Kalt ist die Angst [2017 HDTVRip 720p] MVO ["Синема УС"] bober100 Скачать
1 | 0
T Фильмы (мультфильмы) cо спонсором показа (Новинки AVI/MKV) [ 1.37 GB ] Озноб от страха / Kalt ist die Angst [2017 HDTVRip] MVO ["Синема УС"] bober100 Скачать
1 | 0
T Фильмы 2015 (Звук TS, Cam, VO, DVO) [ 2.05 GB ] Немецкий страх / German Angst [2015 НDRip] DVO Ворон Скачать
1 | 0

28-11-2019 20:33  

Отключить всю рекламу на сайте

    Дорогой пользователь! Огромная просьба, поблагодарите релизера, оцените раздачу и оставьте свои комментарий, если Вы скачали Страх через торрент бесплатно! Внесите свою лепту в развитие PiratBit!
    Комментировать посты могут только пользователи прошедшие не сложную регистрацию
    Показать сообщения:    

    Страх через торрент
    Скачать бесплатно Страх
    Страх скачать торрент
    Страх смотреть онлайн
    Cкачать фильм Страх бесплатно
    Страх скачать торрент в хорошем качестве
    Страх смотреть онлайн бесплатно в хорошем качестве


    Вы не можете начинать темы
    Вы не можете отвечать на сообщения
    Вы не можете редактировать свои сообщения
    Вы не можете удалять свои сообщения
    Вы не можете голосовать в опросах
    Вы не можете прикреплять файлы к сообщениям
    Вы можете скачивать файлы