Marvel's Avengers Deluxe Edition (супер цена) 159р. Внимание количество ограничено!!!

2 сезон

iTunes

iTunes

1

iTunes

iTunes

iTunes

WEBRip

iTunes

30
pack

Новость дня

ВАЖНО

!!Акция!!

Alien_RageХит недели

RePack

Horizon Zero Dawn

ИГРА 18+

pack

RePack

jed

!!Акция!!

Alien_Rage

RePack

fifa19

RePack

Assassins Creed: Odyssey

RePack

NEED FOR SPEED™ PAYBACK

4 сезон

9 сезон

Бесстыжие 9 сезон

Все сериалы

все сериалы на PB.wtf

RePack

FAR CRY 5
  

Сказка о царе Салтане (Александр Птушко) [1966, фэнтези, семейный, WEBRip 1080p] piratbit.pw

Сказка о царе Салтане через торрент piratbit.pw

Размер: 2.11 GB | Добавлен: 2 года 7 мес. назад | Торрент скачан:139 раз
Скачать  

23-01-2018 14:35 Сказка о царе Салтане Скачать торрент  

Сказка о царе Салтане

Год выпуска: 1966
Страна: СССР
Жанр: фэнтези, семейный
Продолжительность: 01:21:35
Перевод: Не требуется [Русский]
Режиссер: Александр Птушко
В ролях:

Владимир Андреев (царь Салтан), Лариса Голубкина (царица), Олег Видов (царевич Гвидон), Ксения Рябинкина (царевна Лебедь), Николай Бармин (Черномор), Яков Беленький (корабельщик), Нина Беляева (повариха), Борис Битюков (корабельщик и боярин), Юрий Чекулаев (спальник), Александр Дегтярь (корабельщик), Владимир Ферапонтов (корабельщик), Сергей Голованов (корабельщик)
Описание:
Три девицы под окном пряли поздно вечерком... А потом много чего было: и любовь, и клевета, и предательство, и чудеса, и множество волшебных приключений, и тридцать три богатыря, и, конечно же, счастливый конец...
Мировая премьера: 2 января 1967
rating
Релиз от:
Качество: WEBRip 1080p
Формат: MKV
Видео кодек: AVC
Аудио кодек: AAC LC, AC3
Видео: AVC, 1920x820 (2.35:1), 3128 kbps, 25 fps, 0,079 bpp
Аудио №1: AC3 / 2.0 / 48 kHz / 448 kbps /
Аудио №2: AAC LC / 2.0 / 44 kHz / 125 kbps /
General
Unique ID : 75108915246784045693922518973991525011 (0x3881736DF2AC44471AE6C2A983269A93)
Complete name : D:\video\Раздачи\Skazka.O.Tsare.Saltane.1966.WEBRip1080 by WSM.mkv
Format : Matroska
Format version : Version 4 / Version 2
File size : 2.11 GiB
Duration : 1 h 21 min
Overall bit rate : 3 705 kb/s
Movie name : Сказка о царе Салтане (1966)
Encoded date : UTC 2018-01-23 14:13:11
Writing application : mkvmerge v20.0.0 ('I Am The Sun') 64-bit
Writing library : libebml v1.3.5 + libmatroska v1.4.8

Video
ID : 1
Format : AVC
Format/Info : Advanced Video Codec
Format profile : High@L4.1
Format settings, CABAC : Yes
Format settings, ReFrames : 5 frames
Codec ID : V_MPEG4/ISO/AVC
Duration : 1 h 21 min
Bit rate : 3 129 kb/s
Width : 1 920 pixels
Height : 820 pixels
Display aspect ratio : 2.35:1
Frame rate mode : Constant
Frame rate : 25.000 FPS
Color space : YUV
Chroma subsampling : 4:2:0
Bit depth : 8 bits
Scan type : Progressive
Bits/(Pixel*Frame) : 0.079
Stream size : 1.78 GiB (84%)
Writing library : x264 core 152 r2851 ba24899
Encoding settings : cabac=1 / ref=5 / deblock=1:-2:-3 / analyse=0x3:0x113 / me=hex / subme=8 / psy=1 / psy_rd=1.00:0.00 / mixed_ref=1 / me_range=16 / chroma_me=1 / trellis=1 / 8x8dct=1 / cqm=0 / deadzone=21,11 / fast_pskip=1 / chroma_qp_offset=-2 / threads=6 / lookahead_threads=1 / sliced_threads=0 / nr=0 / decimate=1 / interlaced=0 / bluray_compat=0 / constrained_intra=0 / bframes=3 / b_pyramid=2 / b_adapt=1 / b_bias=0 / direct=1 / weightb=1 / open_gop=0 / weightp=2 / keyint=250 / keyint_min=25 / scenecut=40 / intra_refresh=0 / rc_lookahead=40 / rc=crf / mbtree=1 / crf=20.0 / qcomp=0.60 / qpmin=0 / qpmax=69 / qpstep=4 / vbv_maxrate=62500 / vbv_bufsize=78125 / crf_max=0.0 / nal_hrd=none / filler=0 / ip_ratio=1.40 / aq=1:1.00
Default : Yes
Forced : No

Audio #1
ID : 2
Format : AC-3
Format/Info : Audio Coding 3
Mode extension : CM (complete main)
Format settings, Endianness : Big
Codec ID : A_AC3
Duration : 1 h 21 min
Bit rate mode : Constant
Bit rate : 448 kb/s
Channel(s) : 2 channels
Channel positions : Front: L R
Sampling rate : 48.0 kHz
Frame rate : 31.250 FPS (1536 spf)
Compression mode : Lossy
Stream size : 261 MiB (12%)
Default : Yes
Forced : No

Audio #2
ID : 3
Format : AAC
Format/Info : Advanced Audio Codec
Format profile : LC
Codec ID : A_AAC
Duration : 1 h 21 min
Bit rate : 126 kb/s
Channel(s) : 2 channels
Channel positions : Front: L R
Sampling rate : 44.1 kHz
Frame rate : 43.066 FPS (1024 spf)
Compression mode : Lossy
Stream size : 73.3 MiB (3%)
Default : No
Forced : No
piratbit.pw



Скачать Сказка о царе Салтане через торрент http://lostpix.com/img/2018-01/23/twqtq0op8tr7w7mqsn9ci8e5t.png Скачать фильм Сказка о царе Салтане через торрент бесплантно в хорошем качестве Описание: Три девицы под окном пряли поздно вечерком... А потом много чего было: и любовь, и клевета, и предательство, и чудеса, и ... 10 10 10
Торрент: Зарегистрирован [2018-01-23 14:35] · скачан: 139 раз
Статус: √ проверено
Размер: 2.11 GB
Как cкачать? Как скачать Сказка о царе Салтане через торрент | qTorrent

% Раздел Тема Автор DL S | L
Детские отечественные фильмы [ 1.47 GB ] Сказка о царе Салтане [1966 Сказка Экранизация. DVDRip] Pir@tya2010 Скачать
1 | 0


Последний раз редактировалось: WorldSM (2018-01-24 12:22), всего редактировалось 1 раз

28-11-2019 20:33  

Отключить всю рекламу на сайте

23-01-2018 18:34 Сказка о царе Салтане Скачать торрент  

я в таком качестве даже не думал что наши сказки есть, продолжай выкладывать..., спасибо piratbit.pw



24-01-2018 10:01 Сказка о царе Салтане Скачать торрент  

w.a.s.p. писал(а):

я в таком качестве даже не думал что наши сказки есть, продолжай выкладывать..., спасибо

Согласен.Побольше бы сказок.piratbit.pw



    Дорогой пользователь! Огромная просьба, поблагодарите релизера, оцените раздачу и оставьте свои комментарий, если Вы скачали Сказка о царе Салтане через торрент бесплатно! Внесите свою лепту в развитие PiratBit!
    Комментировать посты могут только пользователи прошедшие не сложную регистрацию
    Показать сообщения:    

    Сказка о царе Салтане через торрент
    Скачать бесплатно Сказка о царе Салтане
    Сказка о царе Салтане скачать торрент
    Сказка о царе Салтане смотреть онлайн
    Cкачать фильм Сказка о царе Салтане бесплатно
    Сказка о царе Салтане скачать торрент в хорошем качестве
    Сказка о царе Салтане смотреть онлайн бесплатно в хорошем качестве


    Вы не можете начинать темы
    Вы не можете отвечать на сообщения
    Вы не можете редактировать свои сообщения
    Вы не можете удалять свои сообщения
    Вы не можете голосовать в опросах
    Вы не можете прикреплять файлы к сообщениям
    Вы можете скачивать файлы