1 сезон

1 сезон

iTunes

1

КиноПоиск HD

Кинопоиск HD

iTunes

13

1 сезон

RePack

30

Ultimate

ВАЖНО

ИГРА 18+

pack

RePack

MK11
pack

Легкие деньги

RePack

jed

RePack

fifa19

RePack

RDR2

RePack

NEED FOR SPEED™ PAYBACK

4 сезон

9 сезон

Бесстыжие 9 сезон

Все сериалы

все сериалы на PB.wtf

RePack

FAR CRY 5
  
Magnet ссылка

Рождественские каникулы - 90 / Vacanze di Natale '90 (Энрико Ольдоини) [1990 г., Комедия, DVDRip-AVC, Авторский (одноголосый)] от ExKinoRay piratbit.pw

Рождественские каникулы - 90 через торрент piratbit.pw

Размер: 2.75 GB | Добавлен: 3 года 3 мес. назад | Торрент скачан:5 раз
Скачать  

21-01-2018 04:55 Рождественские каникулы - 90 Скачать торрент  

Рождественские каникулы - 90 / Vacanze di Natale '90
Год выпуска: 1990
Страна: Италия
Жанр: Комедия
Продолжительность: 01:43:03
Перевод: Авторский (одноголосый)

Режиссер: Энрико Ольдоини

Премьера в мире: Декабрь 1990

rating

В ролях: Массимо Болди, Кристиан Де Сика, Диего Абатантуоно, Эцио Греджо, Андреа Ронкато, Коринн Клери, Мойра Орфей, Джианнина Фасио, Мария Грация Кучинотта, Джованна Пини, Колетт Пупон, Галеаццо Бенти, Антонио Кантафора, Уго Конти, Исаак Джордж, Паоло Паолони, Мария Тедески, Саверио Валлоне, Лучио Айелло, Анджело Бернабуччи, Лучио Каидзи, Мари Дикорато, Рино Ди Сильвестро, Елена Фальгери, Густаво Фриджерио, Мария Грация Наццари, Раймондо Пенне, Дженнифер Шиттино, Джо Шиттино, Себастьяно Арчифа

Описание: Постояльцев роскошной гостиницы Сент-Морица на рождественских коникулах ждут необыкновенные приключения. Бывший владелец ресторана Ник, неожиданно становится миллиардером, выиграв на бегах, и теряет голос, охрипнув от радостного крика. В гостинице он встречается с прекрасной аристократкой Элиеттой, которая решает зло подшутить над ним. Бедный юноша Тони, страдающий рядом со своей богатой и старой женой Глорией, любительницей садомазохистских удовольствий, мечтает соединится с любимой девушкой Джованной, которая верит, что Глория — его мать. Тони и его старый друг Бюсто, жена которого нагло изменяет ему с плейбоем, задумали убить своих благоверных, и чтобы не попастся в руки полиции, они решили поменяться жертвами. Дикий горец Артуро ухаживает за Арабеллой, женой его лучшего друга. К дельтапланеристу Беппе неожиданно является его бывшая подруга, которую он не видел двадцать лет, и заставляет поверить, что он отец одной из её дочерей.

Доп. информация: Перевод: Авторский одноголосый (А.Мудров)
Русская дорожка - VHS
00:13:26-00:16:48 эпизод без перевода, отсутствовавший на VHS

Качество: DVDRip-AVC
Формат: MKV
Видео кодек: MPEG4
Аудио кодек: AC3
Видео: MPEG-4 AVC, 3500 Кбит/с, 720x434@1024x434, 25 кадров/сек
Аудио#1: Русский (AC3, 2 ch, 128 Кбит/с, 48 КГц)
Аудио#2: Итальянский (AC3, 2 ch, 192 Кбит/с, 48 КГц)
Релиз от:




raw [info]: 720x434p 64:45 @ 25/1 fps (cfr)
x264 [info]: using SAR=64/45
x264 [info]: using cpu capabilities: MMX2 SSE2Fast LZCNT
x264 [info]: profile High, level 4.1
x264 [info]: frame I:1006 Avg QP:18.26 size: 51234
x264 [info]: frame P:34691 Avg QP:20.52 size: 32853
x264 [info]: frame B:118878 Avg QP:22.42 size: 12728
x264 [info]: consecutive B-frames: 1.7% 2.3% 17.4% 12.5% 9.8% 54.5% 1.7% 0.0% 0.0% 0.0% 0.0% 0.0% 0.0% 0.0% 0.0% 0.0% 0.0%
-----
Общее
Уникальный идентификатор : 200163701306337051240984955402237295137 (0x96962069ADB125D98E59EE7E0E94BA21)
Полное имя : D:\ExKinoRay\Vacanze.di.Natale.1990.DVDRip-AVC.ExKinoRay.mkv
Формат : Matroska
Версия формата : Version 2
Размер файла : 2,75 Гбайт
Продолжительность : 1 ч. 43 м.
Общий поток : 3821 Кбит/сек
Дата кодирования : UTC 2018-01-21 02:49:05
Программа кодирования : mkvmerge v7.8.0 ('River Man') 32bit built on Apr 3 2015 12:11:22
Библиотека кодирования : libebml v1.3.1 + libmatroska v1.4.2

Видео
Идентификатор : 1
Формат : AVC
Формат/Информация : Advanced Video Codec
Профиль формата : High@L4.1
Параметр CABAC формата : Да
Параметр ReFrames формата : 14 кадров
Идентификатор кодека : V_MPEG4/ISO/AVC
Продолжительность : 1 ч. 43 м.
Битрейт : 3500 Кбит/сек
Ширина : 720 пикселей
Высота : 434 пикселя
Соотношение сторон : 2,35:1
Режим частоты кадров : Постоянный
Частота кадров : 25,000 кадров/сек
Цветовое пространство : YUV
Субдискретизация насыщенности : 4:2:0
Битовая глубина : 8 бит
Тип развёртки : Прогрессивная
Бит/(Пиксели*Кадры) : 0.448
Размер потока : 2,47 Гбайт (90%)
Библиотека кодирования : x264 core 148 r2638 7599210
Настройки программы : cabac=1 / ref=14 / deblock=1:-2:-2 / analyse=0x3:0x133 / me=umh / subme=10 / psy=1 / psy_rd=1.05:0.15 / mixed_ref=1 / me_range=32 / chroma_me=1 / trellis=2 / 8x8dct=1 / cqm=0 / deadzone=21,11 / fast_pskip=0 / chroma_qp_offset=-3 / threads=4 / lookahead_threads=1 / sliced_threads=0 / nr=0 / decimate=0 / interlaced=0 / bluray_compat=0 / constrained_intra=0 / bframes=16 / b_pyramid=2 / b_adapt=2 / b_bias=0 / direct=3 / weightb=1 / open_gop=0 / weightp=2 / keyint=250 / keyint_min=25 / scenecut=40 / intra_refresh=0 / rc=2pass / mbtree=0 / bitrate=3500 / ratetol=1.0 / qcomp=0.60 / qpmin=0 / qpmax=69 / qpstep=4 / cplxblur=20.0 / qblur=0.5 / ip_ratio=1.40 / pb_ratio=1.30 / aq=1:1.00
Default : Да
Forced : Нет
Цветовой диапазон : Limited
Основные цвета : BT.601 NTSC
Характеристики трансфера : BT.601
Коэффициенты матрицы : BT.601

Аудио #1
Идентификатор : 2
Формат : AC-3
Формат/Информация : Audio Coding 3
Расширение режима : CM (complete main)
Параметр Endianness формата : Big
Идентификатор кодека : A_AC3
Продолжительность : 1 ч. 43 м.
Вид битрейта : Постоянный
Битрейт : 128 Кбит/сек
Каналы : 2 канала
Расположение каналов : Front: L R
Частота : 48,0 КГц
Частота кадров : 31,250 кадров/сек (1536 spf)
Метод сжатия : С потерями
Задержка видео : 20 мс.
Размер потока : 94,3 Мбайт (3%)
Заголовок : Мудров
Язык : Russian
Default : Да
Forced : Нет

Аудио #2
Идентификатор : 3
Формат : AC-3
Формат/Информация : Audio Coding 3
Профиль формата : Dolby Digital
Расширение режима : CM (complete main)
Параметр Endianness формата : Big
Идентификатор кодека : A_AC3
Продолжительность : 1 ч. 43 м.
Вид битрейта : Постоянный
Битрейт : 192 Кбит/сек
Каналы : 2 канала
Расположение каналов : Front: L R
Частота : 48,0 КГц
Частота кадров : 31,250 кадров/сек (1536 spf)
Метод сжатия : С потерями
Размер потока : 142 Мбайт (5%)
Язык : Italian
Default : Нет
Forced : Нет

piratbit.pw



Скачать Рождественские каникулы - 90 через торрент http://d.radikal.ru/d35/1801/4c/293f1b89c4f8.jpg Скачать фильм Рождественские каникулы - 90 через торрент бесплантно в хорошем качестве Описание: Постояльцев роскошной гостиницы Сент-Морица на рождественских коникулах ждут необыкновенные приключения. Бывший владелец ... 10 10 2
Info! Золотая раздача, скачанное не засчитывается.
Торрент: Зарегистрирован [2018-01-21 04:55] · скачан: 5 раз
Статус: √ проверено
Размер: 2.75 GB
Как cкачать? Как скачать Рождественские каникулы - 90 через торрент | UTorrent

28-11-2019 20:33  

Отключить всю рекламу на сайте

21-01-2018 07:26 Рождественские каникулы - 90 Скачать торрент  

Топик был перенесен из форума Оформление раздач (Кино, Видео и ТВ) в форум Фильмы с авторской озвучкой


schultzpiratbit.pw



    Дорогой пользователь! Огромная просьба, поблагодарите релизера, оцените раздачу и оставьте свои комментарий, если Вы скачали Рождественские каникулы - 90 через торрент бесплатно! Внесите свою лепту в развитие PiratBit!
    Комментировать посты могут только пользователи прошедшие не сложную регистрацию
    Показать сообщения:    

    Рождественские каникулы - 90 через торрент
    Скачать бесплатно Рождественские каникулы - 90
    Рождественские каникулы - 90 скачать торрент
    Рождественские каникулы - 90 смотреть онлайн
    Cкачать фильм Рождественские каникулы - 90 бесплатно
    Рождественские каникулы - 90 скачать торрент в хорошем качестве
    Рождественские каникулы - 90 смотреть онлайн бесплатно в хорошем качестве


    Вы не можете начинать темы
    Вы не можете отвечать на сообщения
    Вы не можете редактировать свои сообщения
    Вы не можете удалять свои сообщения
    Вы не можете голосовать в опросах
    Вы не можете прикреплять файлы к сообщениям
    Вы можете скачивать файлы