Marvel's Avengers Deluxe Edition (супер цена) 159р. Внимание количество ограничено!!!

2 сезон

iTunes

iTunes

1

iTunes

iTunes

iTunes

WEBRip

iTunes

30
pack

Новость дня

ВАЖНО

!!Акция!!

Alien_RageХит недели

RePack

Horizon Zero Dawn

ИГРА 18+

pack

RePack

jed

!!Акция!!

Alien_Rage

RePack

fifa19

RePack

Assassins Creed: Odyssey

RePack

NEED FOR SPEED™ PAYBACK

4 сезон

9 сезон

Бесстыжие 9 сезон

Все сериалы

все сериалы на PB.wtf

RePack

FAR CRY 5
  

Жги! (Кирилл Плетнёв) [2017, Драма, WEB-DL 1080p] [iTunes] piratbit.pw

Жги! через торрент piratbit.pw

Размер: 3.4 GB | Добавлен: 2 года 8 мес. назад | Торрент скачан:618 раз
Скачать  

17-01-2018 21:29 Жги! Скачать торрент  

Жги!Год выпуска: 2017
Страна: Россия
Жанр: Драма
Продолжительность: 01:38:39
Перевод: Русский | iTunes
Субтитры: отсутствуют

Режиссер: Кирилл Плетнёв



В ролях:

Инга Оболдина, Виктория Исакова, Анна Уколова, Владимир Ильин, Данил Стеклов, Никита Кологривый, Татьяна Догилева, Ольга Бузова, Александра Бортич, Екатерина Агеева

Описание:

У каждого человека есть право на жизнь, свободу и стремление к счастью. Надсмотрщице в женской колонии выпадает шанс изменить свою судьбу, приняв участие в главном песенном шоу страны. Однако сильного голоса для этого недостаточно. Через множество комичных ситуаций и череду драматических событий героине предстоит заново найти себя. А единственным человеком, способный ей в этом помочь, оказывается одна из заключенных, в прошлом — певица. Честная и пронзительная история о том, что жизнь полна возможностей, но у каждой из них есть своя цена…

Качество: WEB-DL 1080p
Формат: MKV

Видео: MPEG4-AVC, , 4561 Кбит/с, 1920x804
Аудио: Русский (AC3, 6 ch, 384 Кбит/с)
скриншот   скриншот   скриншот  

Общее
Уникальный идентификатор : 172494385683484043324473384024559440761 (0x81C535D3C5E689CD85E124F8FDA5D379)
Полное имя : D:\Zhgi!.2O17.O.WEB-DL.1O8Op.mkv
Формат : Matroska
Версия формата : Version 2
Размер файла : 3,40 Гбайт
Продолжительность : 1 ч. 38 м.
Общий поток : 4947 Кбит/сек
Дата кодирования : UTC 2018-01-17 19:13:55
Программа кодирования : mkvmerge v8.3.0 ('Over the Horizon') 64bit
Библиотека кодирования : libebml v1.3.1 + libmatroska v1.4.2

Видео
Идентификатор : 1
Формат : AVC
Формат/Информация : Advanced Video Codec
Профиль формата : High@L4
Параметр CABAC формата : Да
Параметр ReFrames формата : 5 кадров
Идентификатор кодека : V_MPEG4/ISO/AVC
Продолжительность : 1 ч. 38 м.
Битрейт : 4561 Кбит/сек
Ширина : 1920 пикселей
Высота : 804 пикселя
Соотношение сторон : 2,40:1
Режим частоты кадров : Постоянный
Частота кадров : 24,000 кадра/сек
Цветовое пространство : YUV
Субдискретизация насыщенности : 4:2:0
Битовая глубина : 8 бит
Тип развёртки : Прогрессивная
Бит/(Пиксели*Кадры) : 0.123
Размер потока : 3,14 Гбайт (92%)
Язык : English
Default : Да
Forced : Нет
Цветовой диапазон : Limited
Основные цвета : BT.709
Характеристики трансфера : BT.709
Коэффициенты матрицы : BT.709

Аудио
Идентификатор : 2
Формат : AC-3
Формат/Информация : Audio Coding 3
Расширение режима : CM (complete main)
Параметр Endianness формата : Big
Идентификатор кодека : A_AC3
Продолжительность : 1 ч. 38 м.
Вид битрейта : Постоянный
Битрейт : 384 Кбит/сек
Каналы : 6 каналов
Расположение каналов : Front: L C R, Side: L R, LFE
Частота : 48,0 КГц
Частота кадров : 31,250 кадров/сек (1536 spf)
Метод сжатия : С потерями
Размер потока : 271 Мбайт (8%)
Язык : Russian
Default : Да
Forced : Нет

Меню
00:00:00.000 : en:Глава 1
00:05:03.625 : en:Глава 2
00:09:35.125 : en:Глава 3
00:15:35.083 : en:Глава 4
00:22:05.166 : en:Глава 5
00:27:03.416 : en:Глава 6
00:34:31.666 : en:Глава 7
00:41:33.541 : en:Глава 8
00:48:15.707 : en:Глава 9
00:55:03.998 : en:Глава 10
01:02:29.373 : en:Глава 11
01:09:49.373 : en:Глава 12
01:15:23.956 : en:Глава 13
01:20:00.747 : en:Глава 14
01:25:49.830 : en:Глава 15
01:32:11.288 : en:Глава 16

piratbit.pw



Скачать Жги! через торрент http://i103.fastpic.ru/big/2018/0117/31/7c0993eae0aaf0c49d6487d077be8431.jpg Скачать фильм Жги! через торрент бесплантно в хорошем качестве Описание: У каждого человека есть право на жизнь, свободу и стремление к счастью. Надсмотрщице в женской колонии выпадает шанс изменить ... 9.9 10 22
Info! Золотая раздача, скачанное не засчитывается.
Торрент: Зарегистрирован [2018-01-17 21:29] · скачан: 618 раз
Статус: √ проверено
Размер: 3.4 GB
Как cкачать? Как скачать Жги! через торрент | qTorrent

% Раздел Тема Автор DL S | L
Наши новые фильмы 2017 [ 1.46 GB ] Жги! [2017 WEB-DLRip] bober100 Скачать
1 | 0
Наши новые фильмы 2017 [ 699 MB ] Жги! [2017 WEB-DLRip] Sherif Скачать
1 | 0
Наши фильмы (HD, WEB-DL 720p, 1080p) [ 3.04 GB ] Жги! [2017 WEB-DL 720p] bober100 Скачать
1 | 0
T Азиатские фильмы [ 2.06 GB ] Тетрадь смерти: Зажги новый мир / Desu Noto Light up the NEW world [2016 WEBRip] MVO [Колобок] bober100 Скачать
1 | 0
T Азиатские фильмы [ 4.01 GB ] Тетрадь смерти: Зажги новый мир / Desu Noto Light up the NEW world [2016 WEBRip 720p] MVO [Колобок] bober100 Скачать
1 | 0
T Азиатские фильмы [ 1.37 GB ] Тетрадь смерти: Зажги новый мир / Desu Noto Light up the NEW world [2016 WEBRip] MVO [Колобок] bober100 Скачать
1 | 0
Eurodance, Technopop, Disco (сборники) (mp3) [ 671 MB ] VA - Зажги под летние хиты. Выпуск 7 50/50 [2016 Pop Dance MP3 256kbps] Magnat Скачать
1 | 0

28-11-2019 20:33  

Отключить всю рекламу на сайте

18-01-2018 05:04 Жги! Скачать торрент  

МАРВЕЛ нервно курит в сторонкеpiratbit.pw



18-01-2018 17:35 Жги! Скачать торрент  

Почитав отзывы на кинопоиске, думал завышен рейтинг. Посмотрев кино, остался под впечатлением. Отличный фильм!piratbit.pw



19-01-2018 12:47 Жги! Скачать торрент  

Den1k1n, серьёзно? точно не говно?piratbit.pw



19-01-2018 14:43 Жги! Скачать торрент  

Хороший фильмpiratbit.pw



    Дорогой пользователь! Огромная просьба, поблагодарите релизера, оцените раздачу и оставьте свои комментарий, если Вы скачали Жги! через торрент бесплатно! Внесите свою лепту в развитие PiratBit!
    Комментировать посты могут только пользователи прошедшие не сложную регистрацию
    Показать сообщения:    

    Жги! через торрент
    Скачать бесплатно Жги!
    Жги! скачать торрент
    Жги! смотреть онлайн
    Cкачать фильм Жги! бесплатно
    Жги! скачать торрент в хорошем качестве
    Жги! смотреть онлайн бесплатно в хорошем качестве


    Вы не можете начинать темы
    Вы не можете отвечать на сообщения
    Вы не можете редактировать свои сообщения
    Вы не можете удалять свои сообщения
    Вы не можете голосовать в опросах
    Вы не можете прикреплять файлы к сообщениям
    Вы можете скачивать файлы