1 сезон

1 сезон

iTunes

1

КиноПоиск HD

Кинопоиск HD

iTunes

13

1 сезон

RePack

30

Новинка

ВАЖНО

ИГРА 18+

pack

RePack

MK11
pack

Легкие деньги

RePack

jed

RePack

fifa19

RePack

RDR2

RePack

NEED FOR SPEED™ PAYBACK

4 сезон

9 сезон

Бесстыжие 9 сезон

Все сериалы

все сериалы на PB.wtf

RePack

FAR CRY 5
  
Magnet ссылка

Мир, полный чудес / Wonderstruck (Тодд Хейнс / Todd Haynes) [2017, драма, детектив, семейный, WEB-DLRip-AVC] AVO (BadBajo) piratbit.pw

Мир, полный чудес через торрент piratbit.pw

Раздают: 1 [ 0 KB/s ]
Размер: 1.52 GB | Добавлен: 3 года 3 мес. назад | Торрент скачан:29 раз
Скачать  

16-01-2018 12:50 Мир, полный чудес Скачать торрент  

Мир, полный чудес
Wonderstruck

«It's not what you look at that matters, it's what you see»


Страна: США
Жанр: драма, детектив, семейный

Год выпуска: 2017
Продолжительность: 01:55:44

Перевод: Авторский (одноголосый, закадровый) [BadBajo]
Субтитры: нет
Оригинальная аудиодорожка: нет

Режиссер: Тодд Хейнс / Todd Haynes

В ролях: Милли Симмондс, Джулианна Мур, Кори Майкл Смит, Джеймс Урбаняк, Дэмиэн Янг, Патрик Мёрни, Лорен Ридлофф, Энтони Натали, Кэрол Аддаббо, Howard Seago, Брайан Берребби, Джон П. МакГинти

Описание:
История Бена и Роуз, которые живут в разные эпохи и не могут смириться с окружающим их миром. Бен мечтает найти своего отца, а мысли Роуз заняты загадочной актрисой. Однажды судьба толкает их на поиски того самого недостающего их жизни элемента.



Релиз:

Автор рипа: stalkerok | Моя группа

Сэмпл

Качество видео: WEB-DLRip-AVC [Wonderstruck.2017.1080p.WEB-DL.DD5.1.H264-FGT]
Формат видео: MKV
Видео кодек: AVC
Аудио кодек: AC3
Видео: 1491 Кбит/сек, 1152x480 (2.40:1), 23,976 кадр/сек, AVC
Аудио: русский, 384 Кбит/сек, 48 КГц, 5.1, AC3
Навигация по главам: есть

---[Information] [03.01.2018 20:09:56] x264 [info]: frame I:985 Avg QP:15.23 size: 43292
---[Information] [03.01.2018 20:09:56] x264 [info]: frame P:39699 Avg QP:17.18 size: 16488
---[Information] [03.01.2018 20:09:56] x264 [info]: frame B:125804 Avg QP:18.93 size: 5272

General
Unique ID : 192198595216392364031648842681115320162 (0x90981A5CDFAED9AFBE990885EB999F62)
Complete name : M:\$new\Wonderstruck (2017)\Wonderstruck.2017.WEB-DLRip-AVC.RUS.stalkerok.new-team.mkv
Format : Matroska
Format version : Version 4 / Version 2
File size : 1.52 GiB
Duration : 1 h 55 min
Overall bit rate : 1 877 kb/s
Movie name : Wonderstruck (2017) (Rip by stalkerok)
Encoded date : UTC 2018-01-03 21:36:01
Writing application : mkvmerge v8.6.1 ('Flying') 64bit
Writing library : libebml v1.3.3 + libmatroska v1.4.4

Video
ID : 2
Format : AVC
Format/Info : Advanced Video Codec
Format profile : High@L4.1
Format settings, CABAC : Yes
Format settings, ReFrames : 14 frames
Codec ID : V_MPEG4/ISO/AVC
Duration : 1 h 55 min
Bit rate : 1 492 kb/s
Width : 1 152 pixels
Height : 480 pixels
Display aspect ratio : 2.40:1
Frame rate mode : Constant
Frame rate : 23.976 (24000/1001) FPS
Color space : YUV
Chroma subsampling : 4:2:0
Bit depth : 8 bits
Scan type : Progressive
Bits/(Pixel*Frame) : 0.113
Stream size : 1.21 GiB (79%)
Title : Wonderstruck (2017) (Rip by stalkerok)
Writing library : x264 core 152 r2851kMod ba24899
Encoding settings : cabac=1 / ref=14 / deblock=1:-3:-2 / analyse=0x3:0x133 / me=umh / subme=10 / psy=1 / fade_compensate=0.00 / psy_rd=1.00:0.00 / mixed_ref=1 / me_range=32 / chroma_me=1 / trellis=2 / 8x8dct=1 / cqm=0 / deadzone=21,11 / fast_pskip=0 / chroma_qp_offset=-2 / threads=12 / lookahead_threads=3 / sliced_threads=0 / nr=0 / decimate=1 / interlaced=0 / bluray_compat=0 / constrained_intra=0 / bframes=14 / b_pyramid=2 / b_adapt=2 / b_bias=0 / direct=3 / weightb=1 / open_gop=0 / weightp=2 / keyint=240 / keyint_min=23 / scenecut=40 / intra_refresh=0 / rc_lookahead=60 / rc=crf / mbtree=0 / crf=19.1000 / qcomp=0.65 / qpmin=0 / qpmax=69 / qpstep=4 / vbv_maxrate=50000 / vbv_bufsize=62500 / crf_max=0.0 / nal_hrd=none / filler=0 / ip_ratio=1.40 / pb_ratio=1.30 / aq=3:0.80 / zones=159244,166488,q=35
Default : Yes
Forced : No

Audio
ID : 1
Format : AC-3
Format/Info : Audio Coding 3
Mode extension : CM (complete main)
Format settings, Endianness : Big
Codec ID : A_AC3
Duration : 1 h 55 min
Bit rate mode : Constant
Bit rate : 384 kb/s
Channel(s) : 6 channels
Channel positions : Front: L C R, Side: L R, LFE
Sampling rate : 48.0 kHz
Frame rate : 31.250 FPS (1536 spf)
Compression mode : Lossy
Stream size : 318 MiB (20%)
Title : Wonderstruck.2017_rus_BadBajo
Language : Russian
Default : Yes
Forced : Yes

Menu
00:00:00.000 : en:1
00:13:44.000 : en:2
00:25:21.000 : en:3
00:36:03.000 : en:4
00:47:01.000 : en:5
01:02:36.000 : en:6
01:12:32.000 : en:7
01:20:20.000 : en:8
01:28:31.000 : en:9
01:37:07.000 : en:10
01:50:30.000 : en:11
скриншот   скриншот   скриншот   скриншот   скриншот   скриншот  
piratbit.pw



Скачать Мир, полный чудес через торрент http://i6.imageban.ru/out/2017/09/18/2ff75c0c358795c5946784cc1680714d.png Скачать фильм Мир, полный чудес через торрент бесплантно в хорошем качестве Описание:История Бена и Роуз, которые живут в разные эпохи и не могут смириться с окружающим их миром. Бен мечтает найти своего отца, а ... 5 10 1
Info! Золотая раздача, скачанное не засчитывается.
Торрент: Зарегистрирован [2018-01-16 12:50] · скачан: 29 раз
Статус: √ проверено
Размер: 1.52 GB
Как cкачать? Как скачать Мир, полный чудес через торрент | UTorrent

% Раздел Тема Автор DL S | L
T Фильмы (мультфильмы) cо спонсором показа (Новинки AVI/MKV) [ 5.46 GB ] Мир полный чудес / Wonderstruck [2017 BDRip 720p] MVO [@MUZOBOZ@] bober100 Скачать
1 | 0
T Фильмы (мультфильмы) cо спонсором показа (Новинки AVI/MKV) [ 2.05 GB ] Мир полный чудес / Wonderstruck [2017 HDRip] MVO [@MUZOBOZ@] bober100 Скачать
1 | 0
T Фильмы (мультфильмы) cо спонсором показа (Новинки AVI/MKV) [ 1.37 GB ] Мир полный чудес / Wonderstruck [2017 HDRip] MVO [@MUZOBOZ@] bober100 Скачать
1 | 0
Фильмы с авторской озвучкой [ 1.46 GB ] Мир полный чудес / Wonderstruck [2017 WEB-DLRip] AVO [BadBajo] - ExKinoRay Enigma2010 Скачать
1 | 0

28-11-2019 20:33  

Отключить всю рекламу на сайте

    Дорогой пользователь! Огромная просьба, поблагодарите релизера, оцените раздачу и оставьте свои комментарий, если Вы скачали Мир, полный чудес через торрент бесплатно! Внесите свою лепту в развитие PiratBit!
    Комментировать посты могут только пользователи прошедшие не сложную регистрацию
    Показать сообщения:    

    Мир, полный чудес через торрент
    Скачать бесплатно Мир, полный чудес
    Мир, полный чудес скачать торрент
    Мир, полный чудес смотреть онлайн
    Cкачать фильм Мир, полный чудес бесплатно
    Мир, полный чудес скачать торрент в хорошем качестве
    Мир, полный чудес смотреть онлайн бесплатно в хорошем качестве


    Вы не можете начинать темы
    Вы не можете отвечать на сообщения
    Вы не можете редактировать свои сообщения
    Вы не можете удалять свои сообщения
    Вы не можете голосовать в опросах
    Вы не можете прикреплять файлы к сообщениям
    Вы можете скачивать файлы