1 сезон

1 сезон

iTunes

1

КиноПоиск HD

Кинопоиск HD

iTunes

13

1 сезон

RePack

30

Новинка

ВАЖНО

ИГРА 18+

pack

RePack

MK11
pack

Легкие деньги

RePack

jed

RePack

fifa19

RePack

RDR2

RePack

NEED FOR SPEED™ PAYBACK

4 сезон

9 сезон

Бесстыжие 9 сезон

Все сериалы

все сериалы на PB.wtf

RePack

FAR CRY 5
  
Magnet ссылка

Рождественские каникулы 95 / Vacanze di Natale 95 (Нери Паренти) [1995 г., Комедия, DVDRip-AVC, Авторский (одноголосый)] от ExKinoRay piratbit.pw

Рождественские каникулы 95 через торрент piratbit.pw

Размер: 1.89 GB | Добавлен: 3 года 3 мес. назад | Торрент скачан:9 раз
Скачать  

15-01-2018 15:22 Рождественские каникулы 95 Скачать торрент  

Рождественские каникулы 95 / Vacanze di Natale 95
Год выпуска: 1995
Страна: Италия
Жанр: Комедия
Продолжительность: 01:35:48
Перевод: Авторский (одноголосый)

Режиссер: Нери Паренти

Премьера в мире: 14 декабря 1995

rating

В ролях: Массимо Болди, Кристиан Де Сика, Люк Перри, Клер Феррис, Кристиана Капотонди, Паоло Боначелли, Ховард Росс, Анджело Бернабуччи, Маурицио Маттиоли

Описание: 14-летняя Марта сходит с ума по Дилану, персонажу сериала «Беверли-Хиллз, 90210», и во что бы то ни стало хочет встретиться с исполнителем этой роли Люком Перри. С этой целью она уговаривает своего отца Лоренцо провести рождественские каникулы в Аспене, где надеется встретить Люка. Картежник Ремо, заигравшись, опаздывает на Рождество — и его жена Келли заявляет, что уходит от него и улетает к сестре в Аспен. В надежде помириться, Ремо покупает билет на тот же самолет. В результате произошедшей в гостинице путаницы с чемоданами Ремо и Лоренцо знакомятся и вскоре попадают в водоворот событий…

Доп. информация: Авторский одноголосый (Андрей Мудров)

Качество: DVDRip-AVC
Формат: MKV
Видео кодек: MPEG4
Аудио кодек: AC3
Видео: MPEG-4 AVC, 2500 Кбит/с, 720x552@1024x552, 25 кадров/сек
Аудио#1: Русский (AC3, 2 ch, 128 Кбит/с, 48 КГц)
Аудио#2: Итальянский (AC3, 2 ch, 192 Кбит/с, 48 КГц)
Релиз от:




raw [info]: 720x552p 64:45 @ 25/1 fps (cfr)
x264 [info]: using SAR=64/45
x264 [info]: using cpu capabilities: MMX2 SSE2Fast LZCNT
x264 [info]: profile High, level 4.1
x264 [info]: frame I:829 Avg QP:15.46 size: 56260
x264 [info]: frame P:32343 Avg QP:18.03 size: 25664
x264 [info]: frame B:110552 Avg QP:20.08 size: 8318
x264 [info]: consecutive B-frames: 1.9% 3.0% 12.4% 16.8% 12.9% 50.7% 2.0% 0.1% 0.1% 0.1% 0.0% 0.0% 0.0% 0.0% 0.0% 0.0% 0.0%
-----
Общее
Уникальный идентификатор : 215519098799579175506191799907026436234 (0xA22377F5F17864D2836F4949944B808A)
Полное имя : D:\ExKinoRay\Vacanze.di.Natale.1995.DVDRip-AVC.ExKinoRay.mkv
Формат : Matroska
Версия формата : Version 2
Размер файла : 1,89 Гбайт
Продолжительность : 1 ч. 35 м.
Общий поток : 2822 Кбит/сек
Дата кодирования : UTC 2018-01-15 13:16:41
Программа кодирования : mkvmerge v7.8.0 ('River Man') 32bit built on Apr 3 2015 12:11:22
Библиотека кодирования : libebml v1.3.1 + libmatroska v1.4.2

Видео
Идентификатор : 1
Формат : AVC
Формат/Информация : Advanced Video Codec
Профиль формата : High@L4.1
Параметр CABAC формата : Да
Параметр ReFrames формата : 14 кадров
Идентификатор кодека : V_MPEG4/ISO/AVC
Продолжительность : 1 ч. 35 м.
Битрейт : 2500 Кбит/сек
Ширина : 720 пикселей
Высота : 552 пикселя
Соотношение сторон : 1,85:1
Режим частоты кадров : Постоянный
Частота кадров : 25,000 кадров/сек
Цветовое пространство : YUV
Субдискретизация насыщенности : 4:2:0
Битовая глубина : 8 бит
Тип развёртки : Прогрессивная
Бит/(Пиксели*Кадры) : 0.252
Размер потока : 1,64 Гбайт (87%)
Библиотека кодирования : x264 core 148 r2638 7599210
Настройки программы : cabac=1 / ref=14 / deblock=1:-2:-2 / analyse=0x3:0x133 / me=umh / subme=10 / psy=1 / psy_rd=1.05:0.15 / mixed_ref=1 / me_range=32 / chroma_me=1 / trellis=2 / 8x8dct=1 / cqm=0 / deadzone=21,11 / fast_pskip=0 / chroma_qp_offset=-3 / threads=4 / lookahead_threads=1 / sliced_threads=0 / nr=0 / decimate=0 / interlaced=0 / bluray_compat=0 / constrained_intra=0 / bframes=16 / b_pyramid=2 / b_adapt=2 / b_bias=0 / direct=3 / weightb=1 / open_gop=0 / weightp=2 / keyint=250 / keyint_min=25 / scenecut=40 / intra_refresh=0 / rc=2pass / mbtree=0 / bitrate=2500 / ratetol=1.0 / qcomp=0.60 / qpmin=0 / qpmax=69 / qpstep=4 / cplxblur=20.0 / qblur=0.5 / ip_ratio=1.40 / pb_ratio=1.30 / aq=1:1.00
Язык : English
Default : Да
Forced : Нет
Цветовой диапазон : Limited
Основные цвета : BT.601 NTSC
Характеристики трансфера : BT.601
Коэффициенты матрицы : BT.601

Аудио #1
Идентификатор : 2
Формат : AC-3
Формат/Информация : Audio Coding 3
Расширение режима : CM (complete main)
Параметр Endianness формата : Big
Идентификатор кодека : A_AC3
Продолжительность : 1 ч. 35 м.
Вид битрейта : Постоянный
Битрейт : 128 Кбит/сек
Каналы : 2 канала
Расположение каналов : Front: L R
Частота : 48,0 КГц
Частота кадров : 31,250 кадров/сек (1536 spf)
Метод сжатия : С потерями
Размер потока : 87,7 Мбайт (5%)
Заголовок : Андрей Мудров
Язык : Russian
Default : Да
Forced : Нет

Аудио #2
Идентификатор : 3
Формат : AC-3
Формат/Информация : Audio Coding 3
Расширение режима : CM (complete main)
Параметр Endianness формата : Big
Идентификатор кодека : A_AC3
Продолжительность : 1 ч. 35 м.
Вид битрейта : Постоянный
Битрейт : 192 Кбит/сек
Каналы : 2 канала
Расположение каналов : Front: L R
Частота : 48,0 КГц
Частота кадров : 31,250 кадров/сек (1536 spf)
Метод сжатия : С потерями
Размер потока : 132 Мбайт (7%)
Язык : Italian
Default : Нет
Forced : Нет

piratbit.pw



Скачать Рождественские каникулы 95 через торрент http://c.radikal.ru/c17/1801/cc/691dc6aacb5c.jpg Скачать фильм Рождественские каникулы 95 через торрент бесплантно в хорошем качестве Описание: 14-летняя Марта сходит с ума по Дилану, персонажу сериала «Беверли-Хиллз, 90210», и во что бы то ни стало хочет встретиться с ... 10 10 1
Info! Золотая раздача, скачанное не засчитывается.
Торрент: Зарегистрирован [2018-01-15 15:22] · скачан: 9 раз
Статус: √ проверено
Размер: 1.89 GB
Как cкачать? Как скачать Рождественские каникулы 95 через торрент | UTorrent

28-11-2019 20:33  

Отключить всю рекламу на сайте

15-01-2018 16:02 Рождественские каникулы 95 Скачать торрент  

Топик был перенесен из форума Оформление раздач (Кино, Видео и ТВ) в форум Фильмы с авторской озвучкой


schultzpiratbit.pw



    Дорогой пользователь! Огромная просьба, поблагодарите релизера, оцените раздачу и оставьте свои комментарий, если Вы скачали Рождественские каникулы 95 через торрент бесплатно! Внесите свою лепту в развитие PiratBit!
    Комментировать посты могут только пользователи прошедшие не сложную регистрацию
    Показать сообщения:    

    Рождественские каникулы 95 через торрент
    Скачать бесплатно Рождественские каникулы 95
    Рождественские каникулы 95 скачать торрент
    Рождественские каникулы 95 смотреть онлайн
    Cкачать фильм Рождественские каникулы 95 бесплатно
    Рождественские каникулы 95 скачать торрент в хорошем качестве
    Рождественские каникулы 95 смотреть онлайн бесплатно в хорошем качестве


    Вы не можете начинать темы
    Вы не можете отвечать на сообщения
    Вы не можете редактировать свои сообщения
    Вы не можете удалять свои сообщения
    Вы не можете голосовать в опросах
    Вы не можете прикреплять файлы к сообщениям
    Вы можете скачивать файлы