1 сезон

1 сезон

iTunes

1

КиноПоиск HD

Кинопоиск HD

iTunes

13

1 сезон

RePack

30

Новинка

ВАЖНО

ИГРА 18+

pack

RePack

MK11
pack

Легкие деньги

RePack

jed

RePack

fifa19

RePack

RDR2

RePack

NEED FOR SPEED™ PAYBACK

4 сезон

9 сезон

Бесстыжие 9 сезон

Все сериалы

все сериалы на PB.wtf

RePack

FAR CRY 5
  
Magnet ссылка

Восемь баскских фамилий / Ocho apellidos vascos (Эмилио Мартинес Ласаро) [2014, мелодрама, комедия, BDRip 1080p by msltel] AVO piratbit.pw

Восемь баскских фамилий через торрент piratbit.pw

Размер: 12.56 GB | Добавлен: 3 года 3 мес. назад | Торрент скачан:6 раз
Скачать  

14-01-2018 08:57 Восемь баскских фамилий Скачать торрент  

Название: Восемь баскских фамилий
Оригинальное название: Ocho apellidos vascos
Год выпуска: 2014
Страна: Испания
Жанр: мелодрама, комедия
Продолжительность: 01:39:13
Перевод: авторский

Режиссер: Эмилио Мартинес Ласаро
В ролях: Клара Лаго, Дэни Ровира, Кармен Мачи, Карра Элехальде, Альберто Лопес, Альфонсо Санчес, Айтор Масо, Абель Мора, Мириам Кабеса

О фильме: Картина рассказывает о странствиях Рафы, андалузца чистой виноградной лозы, который никогда не покидал своей родной и любимой Севильи, так как она давала ему всё, что нужно для жизни — хорошее вино, гель для волос и женщин. В один прекрасный день жизнь Рафа меняется после того, как он встречает первую женщину, устоявшую перед его обаянием — басконку Амайю. Чтобы завоевать её, Рафа совершает путешествие в страну басков, чтобы доказать прекрасной девушке, что он в душе настоящий баск и достоин её любви...



Качество: BDRip 1080p
Формат: MKV
Видео: MPEG-4 AVC, 15.1 Mбит/с, 1920x1036, 23.976 кадр/с
Аудио 1: русский, DTS, 1509 kbps, 6 ch [авторский, Антон Алексеев]
Аудио 2: испанский, DTS, 1509 kbps, 6 ch, 48 kHz [оригинал]
Субтитры: английские
Неименованные главы/чаптеры.
Общее
Уникальный идентификатор : 198184419371551037360276788804685947715 (0x9518EE477551B60B8C1B2BE09DDC6343)
Полное имя : D:\Video\Восемь бакских фамилий.2014.BDRip.1080p by msltel.mkv
Формат : Matroska
Версия формата : Version 4 / Version 2
Размер файла : 12,6 Гбайт
Продолжительность : 1 ч. 39 м.
Общий поток : 18,1 Мбит/сек
Название фильма : Rip by msltel
Дата кодирования : UTC 2018-01-14 03:13:46
Программа кодирования : mkvmerge v8.2.0 ('World of Adventure') 64bit
Библиотека кодирования : libebml v1.3.1 + libmatroska v1.4.2

Видео
Идентификатор : 1
Формат : AVC
Формат/Информация : Advanced Video Codec
Профиль формата : High@L4.1
Настройки формата : CABAC / 4 Ref Frames
Параметр CABAC формата : Да
Параметр RefFrames формата : 4 кадра
Идентификатор кодека : V_MPEG4/ISO/AVC
Продолжительность : 1 ч. 39 м.
Битрейт : 15,1 Мбит/сек
Ширина : 1920 пикселей
Высота : 1036 пикселей
Соотношение сторон : 1,85:1
Режим частоты кадров : Постоянный
Частота кадров : 23,976 (24000/1001) кадра/сек
Цветовое пространство : YUV
Субдискретизация насыщенности : 4:2:0
Битовая глубина : 8 бит
Тип развёртки : Прогрессивная
Бит/(Пиксели*Кадры) : 0.317
Размер потока : 10,5 Гбайт (83%)
Библиотека кодирования : x264 core 146 r2538 121396c
Настройки программы : cabac=1 / ref=4 / deblock=1:-3:-2 / analyse=0x3:0x113 / me=umh / subme=11 / psy=1 / psy_rd=1.00:0.15 / mixed_ref=1 / me_range=32 / chroma_me=1 / trellis=2 / 8x8dct=1 / cqm=0 / deadzone=21,11 / fast_pskip=0 / chroma_qp_offset=-3 / threads=6 / lookahead_threads=1 / sliced_threads=0 / nr=0 / decimate=1 / interlaced=0 / bluray_compat=0 / constrained_intra=0 / bframes=6 / b_pyramid=2 / b_adapt=2 / b_bias=0 / direct=1 / weightb=1 / open_gop=0 / weightp=2 / keyint=230 / keyint_min=23 / scenecut=40 / intra_refresh=0 / rc_lookahead=40 / rc=crf / mbtree=0 / crf=16.2 / qcomp=0.60 / qpmin=0 / qpmax=69 / qpstep=4 / vbv_maxrate=62500 / vbv_bufsize=78125 / crf_max=0.0 / nal_hrd=none / filler=0 / ip_ratio=1.40 / pb_ratio=1.30 / aq=1:1.00
Язык : Spanish
Default : Да
Forced : Нет

Аудио #1
Идентификатор : 2
Формат : DTS
Формат/Информация : Digital Theater Systems
Идентификатор кодека : A_DTS
Продолжительность : 1 ч. 39 м.
Вид битрейта : Постоянный
Битрейт : 1509 Кбит/сек
Каналы : 6 каналов
Расположение каналов : Front: L C R, Side: L R, LFE
Частота : 48,0 КГц
Частота кадров : 93,750 кадра/сек (512 SPF)
Битовая глубина : 24 бит
Метод сжатия : С потерями
Размер потока : 1,05 Гбайт (8%)
Заголовок : Антон Алексеев
Язык : Russian
Default : Да
Forced : Нет

Аудио #2
Идентификатор : 3
Формат : DTS
Формат/Информация : Digital Theater Systems
Идентификатор кодека : A_DTS
Продолжительность : 1 ч. 39 м.
Вид битрейта : Постоянный
Битрейт : 1509 Кбит/сек
Каналы : 6 каналов
Расположение каналов : Front: L C R, Side: L R, LFE
Частота : 48,0 КГц
Частота кадров : 93,750 кадра/сек (512 SPF)
Битовая глубина : 24 бит
Метод сжатия : С потерями
Размер потока : 1,05 Гбайт (8%)
Заголовок : original
Язык : Spanish
Default : Нет
Forced : Нет

Текст
Идентификатор : 4
Формат : UTF-8
Идентификатор кодека : S_TEXT/UTF8
Идентификатор кодека/Информация : UTF-8 Plain Text
Продолжительность : 1 ч. 37 м.
Битрейт : 65 бит/сек
ElementCount : 1625
Размер потока : 46,9 Кбайт (0%)
Заголовок : английские
Язык : English
Default : Нет
Forced : Нет

Меню
00:00:00.000 : :Chapter 01
00:07:09.178 : :Chapter 02
00:11:58.342 : :Chapter 03
00:17:00.936 : :Chapter 04
00:23:22.484 : :Chapter 05
00:30:35.667 : :Chapter 06
00:36:41.782 : :Chapter 07
00:41:02.418 : :Chapter 08
00:47:56.498 : :Chapter 09
00:53:07.767 : :Chapter 10
01:00:32.086 : :Chapter 11
01:07:36.510 : :Chapter 12
01:14:38.682 : :Chapter 13
01:19:02.696 : :Chapter 14
01:27:20.693 : :Chapter 15
01:35:43.904 : :Chapter 16
01:39:12.696 : :Chapter 17
piratbit.pw



Скачать Восемь баскских фамилий через торрент https://a.radikal.ru/a09/1801/64/66e03daf6cba.jpg Скачать фильм Восемь баскских фамилий через торрент бесплантно в хорошем качестве О фильме: Картина рассказывает о странствиях Рафы, андалузца чистой виноградной лозы, который никогда не покидал своей родной и любимой ... 5 10 1
Info! Золотая раздача, скачанное не засчитывается.
Торрент: Зарегистрирован [2018-01-14 08:57] · скачан: 6 раз
Статус: √ проверено
Размер: 12.56 GB
Как cкачать? Как скачать Восемь баскских фамилий через торрент | UTorrent

% Раздел Тема Автор DL S | L
Фильмы с авторской озвучкой [ 4.02 GB ] Восемь баскских фамилий / Ocho apellidos vascos [2014 BDRip 720p by msltel] AVO msltel Скачать
1 | 0

28-11-2019 20:33  

Отключить всю рекламу на сайте

    Дорогой пользователь! Огромная просьба, поблагодарите релизера, оцените раздачу и оставьте свои комментарий, если Вы скачали Восемь баскских фамилий через торрент бесплатно! Внесите свою лепту в развитие PiratBit!
    Комментировать посты могут только пользователи прошедшие не сложную регистрацию
    Показать сообщения:    

    Восемь баскских фамилий через торрент
    Скачать бесплатно Восемь баскских фамилий
    Восемь баскских фамилий скачать торрент
    Восемь баскских фамилий смотреть онлайн
    Cкачать фильм Восемь баскских фамилий бесплатно
    Восемь баскских фамилий скачать торрент в хорошем качестве
    Восемь баскских фамилий смотреть онлайн бесплатно в хорошем качестве


    Вы не можете начинать темы
    Вы не можете отвечать на сообщения
    Вы не можете редактировать свои сообщения
    Вы не можете удалять свои сообщения
    Вы не можете голосовать в опросах
    Вы не можете прикреплять файлы к сообщениям
    Вы можете скачивать файлы