1 сезон

1 сезон

iTunes

1

КиноПоиск HD

Кинопоиск HD

iTunes

13

1 сезон

RePack

30

Новинка

ВАЖНО

ИГРА 18+

pack

RePack

MK11
pack

Легкие деньги

RePack

jed

RePack

fifa19

RePack

RDR2

RePack

NEED FOR SPEED™ PAYBACK

4 сезон

9 сезон

Бесстыжие 9 сезон

Все сериалы

все сериалы на PB.wtf

RePack

FAR CRY 5
  
Magnet ссылка

Никто не совершенен / Nessuno è perfetto (Паскуале Феста Кампаниле) [1981 г., Комедия, драма, мелодрама, DVDRip-AVC, Авторский (одноголосый)] от ExKinoRay piratbit.pw

Никто не совершенен через торрент piratbit.pw

Размер: 1.58 GB | Добавлен: 3 года 3 мес. назад | Торрент скачан:55 раз
Скачать  

12-01-2018 14:19 Никто не совершенен Скачать торрент  

Никто не совершенен / Nessuno è perfetto
Год выпуска: 1981
Страна: Италия
Жанр: Комедия, драма, мелодрама
Продолжительность: 01:39:25
Перевод: Авторский (одноголосый)

Режиссер: Паскуале Феста Кампаниле

Премьера в мире: 22 октября 1981

rating

В ролях: Орнелла Мути, Ренато Поццетто, Феличе Андреази, Массимо Болди, Габриэле Тинти, Лина Волоньги, Франческо Висентин, Даниэла Грассини

Описание: Владелец небольшого винного завода, Гуэррино Кастильони, несколько лет назад похоронивший жену, практически утратил интерес к жизни. Во время одной из бессмысленных ночных поездок по городу он знакомится с очаровательной моделью Шанталь. Молодые люди влюбляются друг в друга и практически сразу женятся. Шанталь помогает Гуэррино вернуть вкус к жизни и начать все сначала, но семейная идиллия длилась недолго…

Доп. информация: Перевод: Авторский одноголосый (Андрей Мудров)

Качество: DVDRip-AVC
Формат: MKV
Видео кодек: MPEG4
Аудио кодек: AC3
Видео: MPEG-4 AVC, 1700 Кбит/с, 720x552@1024x552, 25 кадров/сек
Аудио#1: Русский (AC3, 2 ch, 192 Кбит/с, 48 КГц)
Аудио#2: Итальянский (AC3, 2 ch, 384 Кбит/с, 48 КГц)
Релиз от:




raw [info]: 720x552p 64:45 @ 25/1 fps (cfr)
x264 [info]: using SAR=64/45
x264 [info]: using cpu capabilities: MMX2 SSE2Fast LZCNT
x264 [info]: profile High, level 4.1
x264 [info]: frame I:946 Avg QP:15.04 size: 52331
x264 [info]: frame P:33052 Avg QP:17.90 size: 19312
x264 [info]: frame B:115151 Avg QP:19.57 size: 5038
x264 [info]: consecutive B-frames: 1.7% 3.2% 13.9% 13.0% 10.8% 53.6% 3.3% 0.2% 0.3% 0.0% 0.0% 0.0% 0.0% 0.0% 0.0% 0.0% 0.0%
-----
Общее
Уникальный идентификатор : 205093423014172339081449290123447397378 (0x9A4B8E7557644C89ADC1625901B06C02)
Полное имя : D:\ExKinoRay\Nikto.Ne.Sovershenen.1981.DVDRip-AVC.ExKinoRay.mkv
Формат : Matroska
Версия формата : Version 2
Размер файла : 1,58 Гбайт
Продолжительность : 1 ч. 39 м.
Общий поток : 2278 Кбит/сек
Дата кодирования : UTC 2018-01-12 12:11:46
Программа кодирования : mkvmerge v7.8.0 ('River Man') 32bit built on Apr 3 2015 12:11:22
Библиотека кодирования : libebml v1.3.1 + libmatroska v1.4.2

Видео
Идентификатор : 1
Формат : AVC
Формат/Информация : Advanced Video Codec
Профиль формата : High@L4.1
Параметр CABAC формата : Да
Параметр ReFrames формата : 14 кадров
Идентификатор кодека : V_MPEG4/ISO/AVC
Продолжительность : 1 ч. 39 м.
Битрейт : 1700 Кбит/сек
Ширина : 720 пикселей
Высота : 552 пикселя
Соотношение сторон : 1,85:1
Режим частоты кадров : Постоянный
Частота кадров : 25,000 кадров/сек
Цветовое пространство : YUV
Субдискретизация насыщенности : 4:2:0
Битовая глубина : 8 бит
Тип развёртки : Прогрессивная
Бит/(Пиксели*Кадры) : 0.171
Размер потока : 1,15 Гбайт (73%)
Библиотека кодирования : x264 core 148 r2638 7599210
Настройки программы : cabac=1 / ref=14 / deblock=1:-2:-2 / analyse=0x3:0x133 / me=umh / subme=10 / psy=1 / psy_rd=1.05:0.15 / mixed_ref=1 / me_range=32 / chroma_me=1 / trellis=2 / 8x8dct=1 / cqm=0 / deadzone=21,11 / fast_pskip=0 / chroma_qp_offset=-3 / threads=4 / lookahead_threads=1 / sliced_threads=0 / nr=0 / decimate=0 / interlaced=0 / bluray_compat=0 / constrained_intra=0 / bframes=16 / b_pyramid=2 / b_adapt=2 / b_bias=0 / direct=3 / weightb=1 / open_gop=0 / weightp=2 / keyint=250 / keyint_min=25 / scenecut=40 / intra_refresh=0 / rc=2pass / mbtree=0 / bitrate=1700 / ratetol=1.0 / qcomp=0.60 / qpmin=0 / qpmax=69 / qpstep=4 / cplxblur=20.0 / qblur=0.5 / ip_ratio=1.40 / pb_ratio=1.30 / aq=1:1.00
Язык : English
Default : Да
Forced : Нет
Цветовой диапазон : Limited
Основные цвета : BT.601 NTSC
Характеристики трансфера : BT.601
Коэффициенты матрицы : BT.601

Аудио #1
Идентификатор : 2
Формат : AC-3
Формат/Информация : Audio Coding 3
Расширение режима : CM (complete main)
Параметр Endianness формата : Big
Идентификатор кодека : A_AC3
Продолжительность : 1 ч. 39 м.
Вид битрейта : Постоянный
Битрейт : 192 Кбит/сек
Каналы : 2 канала
Расположение каналов : Front: L R
Частота : 48,0 КГц
Частота кадров : 31,250 кадров/сек (1536 spf)
Метод сжатия : С потерями
Размер потока : 137 Мбайт (8%)
Заголовок : Мудров
Язык : Russian
Default : Да
Forced : Нет

Аудио #2
Идентификатор : 3
Формат : AC-3
Формат/Информация : Audio Coding 3
Расширение режима : CM (complete main)
Параметр Endianness формата : Big
Идентификатор кодека : A_AC3
Продолжительность : 1 ч. 39 м.
Вид битрейта : Постоянный
Битрейт : 384 Кбит/сек
Каналы : 2 канала
Расположение каналов : Front: L R
Частота : 48,0 КГц
Частота кадров : 31,250 кадров/сек (1536 spf)
Метод сжатия : С потерями
Размер потока : 273 Мбайт (17%)
Язык : Italian
Default : Нет
Forced : Нет

piratbit.pw



Скачать Никто не совершенен через торрент http://i67.fastpic.ru/big/2014/1028/94/4ebcd65afc3f7c5a86ae9c6e0e840f94.jpg Скачать фильм Никто не совершенен через торрент бесплантно в хорошем качестве Описание: Владелец небольшого винного завода, Гуэррино Кастильони, несколько лет назад похоронивший жену, практически утратил интерес к ... 5 10 1
Info! Золотая раздача, скачанное не засчитывается.
Торрент: Зарегистрирован [2018-01-12 14:19] · скачан: 55 раз
Статус: √ проверено
Размер: 1.58 GB
Как cкачать? Как скачать Никто не совершенен через торрент | UTorrent

28-11-2019 20:33  

Отключить всю рекламу на сайте

12-01-2018 15:14 Никто не совершенен Скачать торрент  

Топик был перенесен из форума Оформление раздач (Кино, Видео и ТВ) в форум Фильмы с авторской озвучкой


schultzpiratbit.pw



    Дорогой пользователь! Огромная просьба, поблагодарите релизера, оцените раздачу и оставьте свои комментарий, если Вы скачали Никто не совершенен через торрент бесплатно! Внесите свою лепту в развитие PiratBit!
    Комментировать посты могут только пользователи прошедшие не сложную регистрацию
    Показать сообщения:    

    Никто не совершенен через торрент
    Скачать бесплатно Никто не совершенен
    Никто не совершенен скачать торрент
    Никто не совершенен смотреть онлайн
    Cкачать фильм Никто не совершенен бесплатно
    Никто не совершенен скачать торрент в хорошем качестве
    Никто не совершенен смотреть онлайн бесплатно в хорошем качестве


    Вы не можете начинать темы
    Вы не можете отвечать на сообщения
    Вы не можете редактировать свои сообщения
    Вы не можете удалять свои сообщения
    Вы не можете голосовать в опросах
    Вы не можете прикреплять файлы к сообщениям
    Вы можете скачивать файлы