1 сезон

1 сезон

iTunes

1

iTunes

Кинопоиск HD

iTunes

13

1 сезон

RePack

30

Deluxe

ВАЖНО

ИГРА 18+

pack

RePack

MK11
pack

Легкие деньги

RePack

jed

RePack

fifa19

RePack

RDR2

RePack

NEED FOR SPEED™ PAYBACK

4 сезон

9 сезон

Бесстыжие 9 сезон

Все сериалы

все сериалы на PB.wtf

RePack

FAR CRY 5
  
Magnet ссылка

Бандитский Йоханнесбург / Jerusalema (Ральф Зиман) [2008, боевик, драма, криминал, BDRip] DVO + VO piratbit.pw

Бандитский Йоханнесбург через торрент piratbit.pw

Размер: 2.18 GB | Добавлен: 3 года 4 мес. назад | Торрент скачан:25 раз
Скачать  

10-01-2018 21:20 Бандитский Йоханнесбург Скачать торрент  

Бандитский Йоханнесбург / Jerusalema

Год выпуска: 2008
Страна: ЮАР
Жанр: боевик, драма, криминал
Продолжительность: 01:58:37
Перевод: Профессиональный (двухголосый, закадровый) + любительский (одноголосый, закадровый) [Tex]

  • Режиссер: Ральф Зиман


В ролях: Дэниэл Баклэнд, Роберт Хоббс, Юджин Хумбанйива, Джафта Мамаболо, Шелли Мескин, Рапулана Сейфемо

Описание: Лаки Кунене точно знает, чего он хочет в жизни: Поступить в институт, BMW 7 серии, дом с видом на море и умную, красивую жену. Но Лаки было отказано в университетской стипендии. И он и его лучший друг Зейкс начинают зарабатывать на краже автомобилей, которые подымают их на головокружительную высоту богатства.

После неудачного ограбления друзья рвут когти в Йоханнесбург. Пять лет они пашут в загнанном бизнес-такси и живут в грязной квартире совместно с 20 другими людьми. И Лаки создает Народный Жилищный Фонд района Хилброу, и приступает к новой карьере, карьера, которая возьмет его на вершину преступного мира в Южной Африке.

  • Качество: BDRip
  • Формат: AVI
  • Видео кодек: XviD
  • Аудио кодек: AC-3
  • Видео: MPEG4, XviD, 720x304 (2.35:1), 23.976 fps, 1 978 Kbps (0.377 bit/pixel)
  • Аудио #1: AC-3, 48.0 KHz, 2 ch, 192 Kbps, CBR | DVO
  • Аудио #2: AC-3, 48.0 KHz, 6 ch, 448 Kbps, CBR | VO Tex


Скриншоты

скриншот  скриншот  скриншот  скриншот  скриншот  


Код:

Общее
Полное имя                               : F:\PC Share\Banditskii.Iohannesburg.2008.DUALRUS.BDRip.XviD.AC3.-HQ-ViDEO.avi
Формат                                   : AVI
Формат/Информация                        : Audio Video Interleave
Профиль формата                          : OpenDML
Размер файла                             : 2,18 Гбайт
Продолжительность                        : 1 ч. 58 м.
Общий поток                              : 2636 Кбит/сек
Программа кодирования                    : VirtualDubMod 1.5.10.2 (build 2540/release)
Библиотека кодирования                   : VirtualDubMod build 2540/release

Видео
Идентификатор                            : 0
Формат                                   : MPEG-4 Visual
Профиль формата                          : Advanced Simple@L5
Параметр BVOP формата                    : 2
Параметр QPel формата                    : Нет
Параметр GMC формата                     : Без точки перехода
Параметр матрицы формата                 : Выборочная
Идентификатор кодека                     : XVID
Идентификатор кодека/Подсказка           : XviD
Продолжительность                        : 1 ч. 58 м.
Битрейт                                  : 1978 Кбит/сек
Ширина                                   : 720 пикселей
Высота                                   : 304 пикселя
Соотношение сторон                       : 2,35:1
Частота кадров                           : 23,976 (23976/1000) кадра/сек
Цветовое пространство                    : YUV
Субдискретизация насыщенности            : 4:2:0
Битовая глубина                          : 8 бит
Тип развёртки                            : Прогрессивная
Метод сжатия                             : С потерями
Бит/(Пиксели*Кадры)                      : 0.377
Размер потока                            : 1,64 Гбайт (75%)
Библиотека кодирования                   : XviD 64

Аудио #1
Идентификатор                            : 1
Формат                                   : AC-3
Формат/Информация                        : Audio Coding 3
Расширение режима                        : CM (complete main)
Параметр Endianness формата              : Big
Идентификатор кодека                     : 2000
Продолжительность                        : 1 ч. 58 м.
Вид битрейта                             : Постоянный
Битрейт                                  : 192 Кбит/сек
Каналы                                   : 2 канала
Расположение каналов                     : Front: L R
Частота                                  : 48,0 КГц
Частота кадров                           : 31,250 кадров/сек (1536 spf)
Метод сжатия                             : С потерями
Размер потока                            : 163 Мбайт (7%)
Выравнивание                             : Разделение по промежуткам
Продолжительность промежутка             : 42  мс. (1,00 видеокадр)
Время предзагрузки промежутка            : 500  мс.

Аудио #2
Идентификатор                            : 2
Формат                                   : AC-3
Формат/Информация                        : Audio Coding 3
Расширение режима                        : CM (complete main)
Параметр Endianness формата              : Big
Идентификатор кодека                     : 2000
Продолжительность                        : 1 ч. 58 м.
Вид битрейта                             : Постоянный
Битрейт                                  : 448 Кбит/сек
Каналы                                   : 6 каналов
Расположение каналов                     : Front: L C R, Side: L R, LFE
Частота                                  : 48,0 КГц
Частота кадров                           : 31,250 кадров/сек (1536 spf)
Метод сжатия                             : С потерями
Размер потока                            : 380 Мбайт (17%)
Выравнивание                             : Разделение по промежуткам
Продолжительность промежутка             : 42  мс. (1,00 видеокадр)
Время предзагрузки промежутка            : 500  мс.

piratbit.pw



Скачать Бандитский Йоханнесбург через торрент http://i71.fastpic.ru/big/2015/0723/8f/668414037be279573ee868513d81098f.jpg Скачать фильм Бандитский Йоханнесбург через торрент бесплантно в хорошем качестве Описание: Лаки Кунене точно знает, чего он хочет в жизни: Поступить в институт, BMW 7 серии, дом с видом на море и умную, красивую жену. ... 5 10 1
Info! Золотая раздача, скачанное не засчитывается.
Торрент: Зарегистрирован [2018-01-10 21:20] · скачан: 25 раз
Статус: √ проверено
Размер: 2.18 GB
Как cкачать? Как скачать Бандитский Йоханнесбург через торрент | UTorrent

28-11-2019 20:33  

Отключить всю рекламу на сайте

    Дорогой пользователь! Огромная просьба, поблагодарите релизера, оцените раздачу и оставьте свои комментарий, если Вы скачали Бандитский Йоханнесбург через торрент бесплатно! Внесите свою лепту в развитие PiratBit!
    Комментировать посты могут только пользователи прошедшие не сложную регистрацию
    Показать сообщения:    

    Бандитский Йоханнесбург через торрент
    Скачать бесплатно Бандитский Йоханнесбург
    Бандитский Йоханнесбург скачать торрент
    Бандитский Йоханнесбург смотреть онлайн
    Cкачать фильм Бандитский Йоханнесбург бесплатно
    Бандитский Йоханнесбург скачать торрент в хорошем качестве
    Бандитский Йоханнесбург смотреть онлайн бесплатно в хорошем качестве


    Вы не можете начинать темы
    Вы не можете отвечать на сообщения
    Вы не можете редактировать свои сообщения
    Вы не можете удалять свои сообщения
    Вы не можете голосовать в опросах
    Вы не можете прикреплять файлы к сообщениям
    Вы можете скачивать файлы