1 сезон

1 сезон

iTunes

1

КиноПоиск HD

Кинопоиск HD

iTunes

13

1 сезон

RePack

30

Deluxe

ВАЖНО

ИГРА 18+

pack

RePack

MK11
pack

Легкие деньги

RePack

jed

RePack

fifa19

RePack

RDR2

RePack

NEED FOR SPEED™ PAYBACK

4 сезон

9 сезон

Бесстыжие 9 сезон

Все сериалы

все сериалы на PB.wtf

RePack

FAR CRY 5
  
Magnet ссылка

Путь ноги и кулака / The Foot Fist Way (Джоди Хилл) [2006 г, комедия, WEBRip] MVO, DVO piratbit.pw

Путь ноги и кулака через торрент piratbit.pw

Размер: 1.45 GB | Добавлен: 3 года 3 мес. назад | Торрент скачан:70 раз
Скачать  

08-01-2018 08:27 Путь ноги и кулака Скачать торрент  

Путь ноги и кулака / The Foot Fist Way
Год выпуска: 2006
Страна: США
Жанр: комедия
Продолжительность: 01:23:06
Перевод: Профессиональный многоголосый, профессиональный двухголосый

Режиссер: Джоди Хилл

rating

В ролях: Денни Р. МакБрайд, Мэри Джейн Бостич, Бен Бест, Спенсер Морено, Карлос Лопез, Джоди Хилл, Кен Агиляр, Коллетт Вульф, Джефф Хоффман, Дебора Лотс

Описание: «Путь ноги и кулака» — так переводится с корейского название одного из видов восточных единоборств — таэквондо. У себя в маленьком городке Фред Симмонс слывет настоящим мастером этого боевого искусства. Но когда выплывает наружу факт, что его обожаемая жена изменяет ему, в глазах окружающих из крутого парня он превращается в посмешище. Не в силах вытерпеть муки оскорбленного самолюбия, Фред покидает городок и пускается в паломничество с целью найти своего кумира — короля таэквондо Чака «Трака» Уоллеса…

Качество: WEBRip
Формат: AVI
Видео: XviD, 1712 Кбит/с, 720x400, 23.976 кадр/с
Аудио #1: AC3, 2 ch, 192 Кбит/с | Профессиональный многоголосый (Paramount channel)
Аудио #2: AC3, 2 ch, 192 Кбит/с | Профессиональный двухголосый (НТВ)
Аудио #3: AC3, 6 ch, 384 Кбит/с | Aнглийский
Релиз от: Koenig
скриншот   скриншот   скриншот   скриншот   скриншот   скриншот  

Общее
Полное имя : The.Foot.Fist.Way.2006.WEBRip.avi
Формат : AVI
Формат/Информация : Audio Video Interleave
Размер файла : 1,45 Гбайт
Продолжительность : 1 ч. 23 м.
Общий поток : 2498 Кбит/сек
Программа кодирования : VirtualDubMod 1.5.10.2 (build 2540/release)
Библиотека кодирования : VirtualDubMod build 2540/release

Видео
Идентификатор : 0
Формат : MPEG-4 Visual
Профиль формата : Advanced Simple@L5
Параметр BVOP формата : 1
Параметр QPel формата : Нет
Параметр GMC формата : Без точки перехода
Параметр матрицы формата : Выборочная
Идентификатор кодека : XVID
Идентификатор кодека/Подсказка : XviD
Продолжительность : 1 ч. 23 м.
Битрейт : 1712 Кбит/сек
Ширина : 720 пикселей
Высота : 400 пикселей
Соотношение сторон : 16:9
Частота кадров : 23,976 (24000/1001) кадра/сек
Цветовое пространство : YUV
Субдискретизация насыщенности : 4:2:0
Битовая глубина : 8 бит
Тип развёртки : Прогрессивная
Метод сжатия : С потерями
Бит/(Пиксели*Кадры) : 0.248
Размер потока : 1018 Мбайт (69%)
Библиотека кодирования : XviD 65

Аудио #1
Идентификатор : 1
Формат : AC-3
Формат/Информация : Audio Coding 3
Параметр Endianness формата : Big
Идентификатор кодека : 2000
Продолжительность : 1 ч. 22 м.
Вид битрейта : Постоянный
Битрейт : 192 Кбит/сек
Каналы : 2 канала
Расположение каналов : Front: L R
Частота : 48,0 КГц
Частота кадров : 31,250 кадров/сек (1536 spf)
Битовая глубина : 16 бит
Метод сжатия : С потерями
Размер потока : 114 Мбайт (8%)
Выравнивание : Разделение по промежуткам
Продолжительность промежутка : 42 мс. (1,00 видеокадр)
Время предзагрузки промежутка : 500 мс.
ServiceKind/String : Complete Main

Аудио #2
Идентификатор : 2
Формат : AC-3
Формат/Информация : Audio Coding 3
Параметр Endianness формата : Big
Идентификатор кодека : 2000
Продолжительность : 1 ч. 22 м.
Вид битрейта : Постоянный
Битрейт : 192 Кбит/сек
Каналы : 2 канала
Расположение каналов : Front: L R
Частота : 48,0 КГц
Частота кадров : 31,250 кадров/сек (1536 spf)
Битовая глубина : 16 бит
Метод сжатия : С потерями
Размер потока : 114 Мбайт (8%)
Выравнивание : Разделение по промежуткам
Продолжительность промежутка : 42 мс. (1,00 видеокадр)
Время предзагрузки промежутка : 500 мс.
ServiceKind/String : Complete Main

Аудио #3
Идентификатор : 3
Формат : AC-3
Формат/Информация : Audio Coding 3
Параметр Endianness формата : Big
Идентификатор кодека : 2000
Продолжительность : 1 ч. 23 м.
Вид битрейта : Постоянный
Битрейт : 384 Кбит/сек
Каналы : 6 каналов
Расположение каналов : Front: L C R, Side: L R, LFE
Частота : 48,0 КГц
Частота кадров : 31,250 кадров/сек (1536 spf)
Битовая глубина : 16 бит
Метод сжатия : С потерями
Размер потока : 228 Мбайт (15%)
Выравнивание : Разделение по промежуткам
Продолжительность промежутка : 42 мс. (1,00 видеокадр)
Время предзагрузки промежутка : 500 мс.
ServiceKind/String : Complete Main

piratbit.pw



Скачать Путь ноги и кулака через торрент https://pic1.kartinco.top/images/11/5hjd3.jpg Скачать фильм Путь ноги и кулака через торрент бесплантно в хорошем качестве Описание: «Путь ноги и кулака» — так переводится с корейского название одного из видов восточных единоборств — таэквондо. У себя в ... 10 10 4
Торрент: Зарегистрирован [2018-01-08 08:27] · скачан: 70 раз
Статус: √ проверено
Размер: 1.45 GB
Как cкачать? Как скачать Путь ноги и кулака через торрент | UTorrent

28-11-2019 20:33  

Отключить всю рекламу на сайте

    Дорогой пользователь! Огромная просьба, поблагодарите релизера, оцените раздачу и оставьте свои комментарий, если Вы скачали Путь ноги и кулака через торрент бесплатно! Внесите свою лепту в развитие PiratBit!
    Комментировать посты могут только пользователи прошедшие не сложную регистрацию
    Показать сообщения:    

    Путь ноги и кулака через торрент
    Скачать бесплатно Путь ноги и кулака
    Путь ноги и кулака скачать торрент
    Путь ноги и кулака смотреть онлайн
    Cкачать фильм Путь ноги и кулака бесплатно
    Путь ноги и кулака скачать торрент в хорошем качестве
    Путь ноги и кулака смотреть онлайн бесплатно в хорошем качестве


    Вы не можете начинать темы
    Вы не можете отвечать на сообщения
    Вы не можете редактировать свои сообщения
    Вы не можете удалять свои сообщения
    Вы не можете голосовать в опросах
    Вы не можете прикреплять файлы к сообщениям
    Вы можете скачивать файлы