1 сезон

1 сезон

iTunes

1

КиноПоиск HD

Кинопоиск HD

iTunes

13

1 сезон

RePack

30

Новинка

ВАЖНО

ИГРА 18+

pack

RePack

MK11
pack

Легкие деньги

RePack

jed

RePack

fifa19

RePack

RDR2

RePack

NEED FOR SPEED™ PAYBACK

4 сезон

9 сезон

Бесстыжие 9 сезон

Все сериалы

все сериалы на PB.wtf

RePack

FAR CRY 5
  
Magnet ссылка

Парень и его пес / A Boy and His Dog (Л. К. Джонс) [1974 г, фантастика, триллер, драма, комедия, BDRip] AVO (Алексеев), SUB piratbit.pw

Парень и его пес через торрент piratbit.pw

Размер: 1.45 GB | Добавлен: 3 года 3 мес. назад | Торрент скачан:23 раза
Скачать  

07-01-2018 18:12 Парень и его пес Скачать торрент  

Парень и его пес / A Boy and His Dog
Год выпуска: 1974
Страна: США
Жанр: фантастика, триллер, драма, комедия
Продолжительность: 01:30:36
Перевод: Авторский (Алексеев)
Субтитры: Русские, английские

Режиссер: Л. К. Джонс

rating

В ролях: Дон Джонсон, Сюзанна Бентон, Джейсон Робардс, Тим МакИнтайр, Элви Мур, Хелен Уинстон, Чарльз МакГроу, Хэл Бэйлор, Рон Файнберг, Майкл Руперт

Описание: Шел 2024 год. После ядерной войны общество раскололось надвое. На радиоактивной поверхности живут одиночки-отбросы, занятые борьбой за выживание. Под землей — все совершенно иначе: скрытые под толстым слоем белил лица, скрытая под толстым слоем законов жизнь. Среди выживших есть — парень и его говорящая собака. Пес интеллектуально превосходит своего спутника, и по существу является его воспитателем. Волею случая они оказываются во власти Комитета…

Качество: BDRip (A.Boy.and.His.Dog.1975.1080p.Remux.AVC.Rus.AVO.Eng)
Формат: AVI
Видео: XviD, 1894 Кбит/с, 720x304, 23.976 кадр/с
Аудио #1: AC3, 2 ch, 192 Кбит/с | Русский
Аудио #2: AC3, 2 ch, 192 Кбит/с | Английский
Релиз от: Koenig
скриншот   скриншот   скриншот   скриншот   скриншот   скриншот  

Общее
Полное имя : A.Boy.and.His.Dog.1975.BDRip.avi
Формат : AVI
Формат/Информация : Audio Video Interleave
Размер файла : 1,45 Гбайт
Продолжительность : 1 ч. 30 м.
Общий поток : 2292 Кбит/сек
Программа кодирования : VirtualDubMod 1.5.10.2 (build 2540/release)
Библиотека кодирования : VirtualDubMod build 2540/release

Видео
Идентификатор : 0
Формат : MPEG-4 Visual
Профиль формата : Advanced Simple@L5
Параметр BVOP формата : 1
Параметр QPel формата : Нет
Параметр GMC формата : Без точки перехода
Параметр матрицы формата : Выборочная
Идентификатор кодека : XVID
Идентификатор кодека/Подсказка : XviD
Продолжительность : 1 ч. 30 м.
Битрейт : 1894 Кбит/сек
Ширина : 720 пикселей
Высота : 304 пикселя
Соотношение сторон : 2,35:1
Частота кадров : 23,976 (24000/1001) кадра/сек
Цветовое пространство : YUV
Субдискретизация насыщенности : 4:2:0
Битовая глубина : 8 бит
Тип развёртки : Прогрессивная
Метод сжатия : С потерями
Бит/(Пиксели*Кадры) : 0.361
Размер потока : 1,20 Гбайт (83%)
Библиотека кодирования : XviD 65

Аудио #1
Идентификатор : 1
Формат : AC-3
Формат/Информация : Audio Coding 3
Параметр Endianness формата : Big
Идентификатор кодека : 2000
Продолжительность : 1 ч. 30 м.
Вид битрейта : Постоянный
Битрейт : 192 Кбит/сек
Каналы : 2 канала
Расположение каналов : Front: L R
Частота : 48,0 КГц
Частота кадров : 31,250 кадров/сек (1536 spf)
Битовая глубина : 16 бит
Метод сжатия : С потерями
Размер потока : 124 Мбайт (8%)
Выравнивание : Разделение по промежуткам
Продолжительность промежутка : 42 мс. (1,00 видеокадр)
Время предзагрузки промежутка : 500 мс.
ServiceKind/String : Complete Main

Аудио #2
Идентификатор : 2
Формат : AC-3
Формат/Информация : Audio Coding 3
Параметр Endianness формата : Big
Идентификатор кодека : 2000
Продолжительность : 1 ч. 30 м.
Вид битрейта : Постоянный
Битрейт : 192 Кбит/сек
Каналы : 2 канала
Расположение каналов : Front: L R
Частота : 48,0 КГц
Частота кадров : 31,250 кадров/сек (1536 spf)
Битовая глубина : 16 бит
Метод сжатия : С потерями
Размер потока : 124 Мбайт (8%)
Выравнивание : Разделение по промежуткам
Продолжительность промежутка : 42 мс. (1,00 видеокадр)
Время предзагрузки промежутка : 500 мс.
ServiceKind/String : Complete Main

piratbit.pw



Скачать Парень и его пес через торрент https://pic1.kartinco.top/images/11/jjbad.jpg Скачать фильм Парень и его пес через торрент бесплантно в хорошем качестве Описание: Шел 2024 год. После ядерной войны общество раскололось надвое. На радиоактивной поверхности живут одиночки-отбросы, занятые ... 10 10 2
Торрент: Зарегистрирован [2018-01-07 18:12] · скачан: 23 раз
Статус: √ проверено
Размер: 1.45 GB
Как cкачать? Как скачать Парень и его пес через торрент | UTorrent

28-11-2019 20:33  

Отключить всю рекламу на сайте

    Дорогой пользователь! Огромная просьба, поблагодарите релизера, оцените раздачу и оставьте свои комментарий, если Вы скачали Парень и его пес через торрент бесплатно! Внесите свою лепту в развитие PiratBit!
    Комментировать посты могут только пользователи прошедшие не сложную регистрацию
    Показать сообщения:    

    Парень и его пес через торрент
    Скачать бесплатно Парень и его пес
    Парень и его пес скачать торрент
    Парень и его пес смотреть онлайн
    Cкачать фильм Парень и его пес бесплатно
    Парень и его пес скачать торрент в хорошем качестве
    Парень и его пес смотреть онлайн бесплатно в хорошем качестве


    Вы не можете начинать темы
    Вы не можете отвечать на сообщения
    Вы не можете редактировать свои сообщения
    Вы не можете удалять свои сообщения
    Вы не можете голосовать в опросах
    Вы не можете прикреплять файлы к сообщениям
    Вы можете скачивать файлы