1 сезон

1 сезон

iTunes

1

КиноПоиск HD

Кинопоиск HD

iTunes

13

1 сезон

RePack

30

Новинка

ВАЖНО

ИГРА 18+

pack

RePack

MK11
pack

Легкие деньги

RePack

jed

RePack

fifa19

RePack

RDR2

RePack

NEED FOR SPEED™ PAYBACK

4 сезон

9 сезон

Бесстыжие 9 сезон

Все сериалы

все сериалы на PB.wtf

RePack

FAR CRY 5
  
Magnet ссылка

Молодость, больница и любовь / Young Doctors in Love (Гэрри Маршалл) [1982 г, комедия, HDRip] AVO (Михалев) piratbit.pw

Молодость, больница и любовь через торрент piratbit.pw

Размер: 1.45 GB | Добавлен: 3 года 3 мес. назад | Торрент скачан:25 раз
Скачать  

27-12-2017 17:12 Молодость, больница и любовь Скачать торрент  

Молодость больница и любовь / Young Doctors in Love
Год выпуска: 1982
Страна: США
Жанр: комедия
Продолжительность: 01:35:34
Перевод: Авторский (A.Михалев)

Режиссер: Гэрри Маршалл

rating

В ролях: Майкл МакКин, Шон Янг, Гарри Дин Стэнтон, Патрик Макни, Гектор Элизондо, Пэмела Рид, Деми Мур, Тейлор Негрон, Джанин Тёрнер

Описание: Когда команда студентов-медиков приходит на практику-интернатуру в городскую больницу, все в ней переворачивается вверх дном. Рвущимся в бой гиперсексуальным практикантам предстоит на пути к гордому званию врача вынести все уколы, стрелы и скальпели в этой гостеприимной и безумной больнице, в которой стены выкрашены как в кафе-мороженном, в медицинских сосудах плавают золотые рыбки, в ординаторской на кушетке под простыней прячется стриптизерша, а лучший способ избавиться от страха перед операционной - позаниматься там любовью.

Качество: HDRip
Формат: AVI
Видео: XviD, 1774 Кбит/с, 720x400, 23.976 кадр/с
Аудио #1: AC3, 2 ch, 192 Кбит/с | Русский
Аудио #2: AC3, 2 ch, 192 Кбит/с | Английский
Релиз от: Koenig
скриншот   скриншот   скриншот   скриншот   скриншот   скриншот  

Общее
Полное имя : Young.Doctors.in.Love.1982.HDRip.avi
Формат : AVI
Формат/Информация : Audio Video Interleave
Размер файла : 1,45 Гбайт
Продолжительность : 1 ч. 35 м.
Общий поток : 2172 Кбит/сек
Программа кодирования : VirtualDubMod 1.5.10.2 (build 2540/release)
Библиотека кодирования : VirtualDubMod build 2540/release

Видео
Идентификатор : 0
Формат : MPEG-4 Visual
Профиль формата : Advanced Simple@L5
Параметр BVOP формата : 1
Параметр QPel формата : Нет
Параметр GMC формата : Без точки перехода
Параметр матрицы формата : Выборочная
Идентификатор кодека : XVID
Идентификатор кодека/Подсказка : XviD
Продолжительность : 1 ч. 35 м.
Битрейт : 1774 Кбит/сек
Ширина : 720 пикселей
Высота : 400 пикселей
Соотношение сторон : 16:9
Частота кадров : 23,976 (24000/1001) кадра/сек
Цветовое пространство : YUV
Субдискретизация насыщенности : 4:2:0
Битовая глубина : 8 бит
Тип развёртки : Прогрессивная
Метод сжатия : С потерями
Бит/(Пиксели*Кадры) : 0.257
Размер потока : 1,18 Гбайт (82%)
Библиотека кодирования : XviD 65

Аудио #1
Идентификатор : 1
Формат : AC-3
Формат/Информация : Audio Coding 3
Параметр Endianness формата : Big
Идентификатор кодека : 2000
Продолжительность : 1 ч. 35 м.
Вид битрейта : Постоянный
Битрейт : 192 Кбит/сек
Каналы : 2 канала
Расположение каналов : Front: L R
Частота : 48,0 КГц
Частота кадров : 31,250 кадров/сек (1536 spf)
Битовая глубина : 16 бит
Метод сжатия : С потерями
Размер потока : 131 Мбайт (9%)
Выравнивание : Разделение по промежуткам
Продолжительность промежутка : 42 мс. (1,00 видеокадр)
Время предзагрузки промежутка : 500 мс.
ServiceKind/String : Complete Main

Аудио #2
Идентификатор : 2
Формат : AC-3
Формат/Информация : Audio Coding 3
Параметр Endianness формата : Big
Идентификатор кодека : 2000
Продолжительность : 1 ч. 35 м.
Вид битрейта : Постоянный
Битрейт : 192 Кбит/сек
Каналы : 2 канала
Расположение каналов : Front: L R
Частота : 48,0 КГц
Частота кадров : 31,250 кадров/сек (1536 spf)
Битовая глубина : 16 бит
Метод сжатия : С потерями
Размер потока : 131 Мбайт (9%)
Выравнивание : Разделение по промежуткам
Продолжительность промежутка : 42 мс. (1,00 видеокадр)
Время предзагрузки промежутка : 500 мс.
ServiceKind/String : Complete Main

piratbit.pw



Скачать Молодость, больница и любовь через торрент https://pic1.kartinco.top/images/11/9bcit.jpg Скачать фильм Молодость, больница и любовь через торрент бесплантно в хорошем качестве Описание: Когда команда студентов-медиков приходит на практику-интернатуру в городскую больницу, все в ней переворачивается вверх дном. ... 5 10 1
Торрент: Зарегистрирован [2017-12-27 17:12] · скачан: 25 раз
Статус: √ проверено
Размер: 1.45 GB
Как cкачать? Как скачать Молодость, больница и любовь через торрент | UTorrent

% Раздел Тема Автор DL S | L
Классика зарубежного кино [ 1.41 GB ] Молодость больница и любовь / Young Doctors in Love [1982 DVDRip-AVC] [AVO] killermax2013 Скачать
1 | 0

28-11-2019 20:33  

Отключить всю рекламу на сайте

    Дорогой пользователь! Огромная просьба, поблагодарите релизера, оцените раздачу и оставьте свои комментарий, если Вы скачали Молодость, больница и любовь через торрент бесплатно! Внесите свою лепту в развитие PiratBit!
    Комментировать посты могут только пользователи прошедшие не сложную регистрацию
    Показать сообщения:    

    Молодость, больница и любовь через торрент
    Скачать бесплатно Молодость, больница и любовь
    Молодость, больница и любовь скачать торрент
    Молодость, больница и любовь смотреть онлайн
    Cкачать фильм Молодость, больница и любовь бесплатно
    Молодость, больница и любовь скачать торрент в хорошем качестве
    Молодость, больница и любовь смотреть онлайн бесплатно в хорошем качестве


    Вы не можете начинать темы
    Вы не можете отвечать на сообщения
    Вы не можете редактировать свои сообщения
    Вы не можете удалять свои сообщения
    Вы не можете голосовать в опросах
    Вы не можете прикреплять файлы к сообщениям
    Вы можете скачивать файлы