Ссылка на приватное зеркало нашего сайта всего за 1$. Внимание количество ограничено!!!

2 сезон

iTunes

iTunes

1

iTunes

iTunes

iTunes

WEBRip

iTunes

30
pack

Вам бонус

ВАЖНО

!!Акция!!

Alien_RageХит недели

RePack

Horizon Zero Dawn

ИГРА 18+

pack

RePack

jed

!!Акция!!

Alien_Rage

RePack

fifa19

RePack

Assassins Creed: Odyssey

RePack

NEED FOR SPEED™ PAYBACK

4 сезон

9 сезон

Бесстыжие 9 сезон

Все сериалы

все сериалы на PB.wtf

RePack

FAR CRY 5
  

Тачки 3 / Cars 3 (Брайан Фи) [2017, мультфильм, комедия, приключения, UHD BDRemux 2160p] Дубляж - [Лицензия] piratbit.pw

Тачки 3 через торрент piratbit.pw

Размер: 36.33 GB | Добавлен: 2 года 9 мес. назад | Торрент скачан:63 раза
Скачать  

23-12-2017 03:05 Тачки 3 Скачать торрент  

Тачки 3 / Cars 3«Гонка продолжается, пока сверкает молния»
Год выпуска: 2017
Страна: США
Жанр: мультфильм, комедия, приключения, семейный, спорт
Продолжительность: 01:42:26
Перевод: Дублированный | Лицензия
Субтитры: Русские (Forced, Full), английские (Full, SDH)
Режиссер: Брайан Фи
В ролях:

Оуэн Уилсон (Lightning McQueen, озвучка), Кристела Алонзо (Cruz Ramirez, озвучка), Крис Купер (Smokey, озвучка), Нэйтан Филлион (Sterling, озвучка), Ларри-кабельщик (Mater, озвучка), Арми Хаммер (Jackson Storm, озвучка), Рэй Мальоцци (Dusty, озвучка), Тони Шэлуб (Luigi, озвучка), Бонни Хант (Sally, озвучка), Лиа ДеЛария (Miss Fritter, озвучка), Керри Вашингтон (Natalie Certain, озвучка), Боб Костас (Bob Cutlass, озвучка)
Описание:
Встречайте самого знаменитого гонщика всех времен, легенду гоночного трека Молнию Маккуина!
Рейтинг:

MPAA: G - Нет возрастных ограничений
Качество: UHD BDRemux 2160p
Формат: MKV
Видео: MPEG-H HEVC HDR Video, 3840x2160, 44.5 Mbit/s, 23.976 fps
Аудио #01: 48 kHz, AC3, 5.1, 640 Kbps | Дублированный | RUS |
Аудио #02: 48 kHz, TrueHD, 7.1, 4896 Kbps | Оригинал | ENG |
Аудио #03: 48 kHz, AC3, 5.1, 640 Kbps | Оригинал | ENG |
Навигация по главам: есть
General
Unique ID : 289863087776487766422245004124198118799 (0xDA11999D042B2DE6D9A3733847EDA58F)
Complete name : G:VideoSSDCars.3.2017.BDREMUX.2160p.4K.UltraHD.HEVC.HDR.ExKinoRay.mkv
Format : Matroska
Format version : Version 4 / Version 2
File size : 36.3 GiB
Duration : 1 h 42 min
Overall bit rate mode : Variable
Overall bit rate : 50.8 Mb/s
Movie name : Cars 3 2017 from ExKinoRay
Encoded date : UTC 2017-12-23 01:36:25
Writing application : mkvmerge v19.0.0 ('Brave Captain') 64-bit
Writing library : libebml v1.3.5 + libmatroska v1.4.8

Video
ID : 1
Format : HEVC
Format/Info : High Efficiency Video Coding
Format profile : Main 10@L5.1@High
Codec ID : V_MPEGH/ISO/HEVC
Duration : 1 h 42 min
Bit rate : 44.5 Mb/s
Width : 3 840 pixels
Height : 2 160 pixels
Display aspect ratio : 16:9
Frame rate mode : Constant
Frame rate : 23.976 (23976/1000) FPS
Original frame rate : 23.976 (24000/1001) FPS
Color space : YUV
Chroma subsampling : 4:2:0 (Type 2)
Bit depth : 10 bits
Bits/(Pixel*Frame) : 0.224
Stream size : 31.9 GiB (88%)
Writing library : ATEME Titan File 3.8.3 (4.8.3.0)
Language : English
Default : Yes
Forced : No
Color range : Limited
Color primaries : BT.2020
Transfer characteristics : PQ
Matrix coefficients : BT.2020 non-constant
Mastering display color pri : R: x=0.680000 y=0.320000, G: x=0.265000 y=0.690000, B: x=0.150000 y=0.060000, White point: x=0.312700 y=0.329000
Mastering display luminance : min: 0.0000 cd/m2, max: 1000.0000 cd/m2

Audio #1
ID : 2
Format : AC-3
Format/Info : Audio Coding 3
Codec ID : A_AC3
Duration : 1 h 42 min
Bit rate mode : Constant
Bit rate : 640 kb/s
Channel(s) : 6 channels
Channel positions : Front: L C R, Side: L R, LFE
Sampling rate : 48.0 kHz
Frame rate : 31.250 FPS (1536 SPF)
Bit depth : 16 bits
Compression mode : Lossy
Stream size : 469 MiB (1%)
Title : Dub [License]
Language : Russian
Service kind : Complete Main
Default : Yes
Forced : No

Audio #2
ID : 3
Format : TrueHD
Format profile : TrueHD+Atmos / TrueHD
Codec ID : A_TRUEHD
Duration : 1 h 42 min
Bit rate mode : Variable
Bit rate : 4 895 kb/s
Maximum bit rate : 6 966 kb/s
Channel(s) : Object Based / 8 channels
Channel positions : Object Based / Front: L C R, Side: L R, Back: L R, LFE
Sampling rate : / 48.0 kHz
Frame rate : 1 200.000 FPS (40 SPF)
Compression mode : Lossless
Delay relative to video : 32 ms
Stream size : 3.50 GiB (10%)
Title : Original
Language : English
Default : No
Forced : No

Audio #3
ID : 4
Format : AC-3
Format/Info : Audio Coding 3
Codec ID : A_AC3
Duration : 1 h 42 min
Bit rate mode : Constant
Bit rate : 640 kb/s
Channel(s) : 6 channels
Channel positions : Front: L C R, Side: L R, LFE
Sampling rate : 48.0 kHz
Frame rate : 31.250 FPS (1536 SPF)
Bit depth : 16 bits
Compression mode : Lossy
Delay relative to video : 31 ms
Stream size : 469 MiB (1%)
Language : English
Service kind : Complete Main
Default : No
Forced : No

Text #1
ID : 5
Format : UTF-8
Codec ID : S_TEXT/UTF8
Codec ID/Info : UTF-8 Plain Text
Duration : 1 h 30 min
Bit rate : 0 b/s
Count of elements : 14
Stream size : 665 Bytes (0%)
Title : Forced
Language : Russian
Default : Yes
Forced : No

Text #2
ID : 6
Format : UTF-8
Codec ID : S_TEXT/UTF8
Codec ID/Info : UTF-8 Plain Text
Duration : 1 h 40 min
Bit rate : 130 b/s
Count of elements : 1420
Stream size : 96.6 KiB (0%)
Title : Full
Language : Russian
Default : No
Forced : No

Text #3
ID : 7
Format : UTF-8
Codec ID : S_TEXT/UTF8
Codec ID/Info : UTF-8 Plain Text
Duration : 1 h 41 min
Bit rate : 86 b/s
Count of elements : 2108
Stream size : 64.2 KiB (0%)
Title : Full
Language : English
Default : No
Forced : No

Text #4
ID : 8
Format : UTF-8
Codec ID : S_TEXT/UTF8
Codec ID/Info : UTF-8 Plain Text
Duration : 1 h 41 min
Bit rate : 87 b/s
Count of elements : 2109
Stream size : 64.6 KiB (0%)
Title : SDH
Language : English
Default : No
Forced : No

Menu
00:00:00.000 : en:Champ McQueen
00:04:57.255 : en:Storm Front
00:10:54.988 : en:Crash
00:13:59.422 : en:Wake-up Call
00:18:15.344 : en:Phone Call
00:21:07.641 : en:Modern Training
00:34:08.880 : en:Deal
00:37:52.103 : en:Beach
00:42:44.812 : en:Crazy Eight
00:49:44.398 : en:Cruz's Dream
00:53:57.734 : en:Facetime
00:58:17.702 : en:Olive Branch
00:59:27.522 : en:Smokey
01:02:15.940 : en:Hud's Win
01:06:35.533 : en:It's Over
01:08:33.109 : en:Old School Training
01:15:48.126 : en:Florida Arrival
01:20:57.852 : en:Pit Stop
01:29:42.418 : en:Victory Lane
01:32:17.031 : en:Epilogue
01:34:00.092 : en:End Credits
piratbit.pw



Скачать Тачки 3 через торрент http://i102.fastpic.ru/big/2017/1223/ab/254c51ceef2ab85645983fec70eb6dab.png Скачать фильм Тачки 3 через торрент бесплантно в хорошем качестве Описание: Встречайте самого знаменитого гонщика всех времен, легенду гоночного трека Молнию Маккуина!✦ Рейтинг: MPAA: G - Нет возрастных ... 10 10 5
Info! Золотая раздача, скачанное не засчитывается.
Торрент: Зарегистрирован [2017-12-23 03:05] · скачан: 63 раз
Статус: √ проверено
Размер: 36.33 GB
Как cкачать? Как скачать Тачки 3 через торрент | qTorrent

% Раздел Тема Автор DL S | L
3D Мультфильмы [ 5.81 GB ] Тачки 3 в 3D / Cars 3 in 3D [2017 Мультфильм Спорт BDRip 1080p BD CEE] Анаглиф slaventi-69 Скачать
1 | 1
Зарубежные Мультфильмы (BDRip 1080p, 720p, Blu-ray, BD-Remux) [ 4.26 GB ] Тачки 3 / Cars 3 [2017 мультфильм BDRip 1080p HEVC ] Мичман37 Скачать
2 | 0
Зарубежные Мультфильмы (BDRip 1080p, 720p, Blu-ray, BD-Remux) [ 9.8 GB ] Тачки 3 / Cars 3 [2017 Мультфильм BDRip 1080p] bober100 Скачать
1 | 0
3D Мультфильмы [ 10.08 GB ] Тачки 3 в 3Д / Cars 3 3D [2017 Мультфильм Спорт BDrip 1080p] DUB / OverUnder / Вертикальная стереопара serega768 Скачать
1 | 0
Иностранные мультфильмы [ 2.04 GB ] Тачки 3 / Cars 3 [2017 Мультфильм HDRip "BD EUR"] coc900 Скачать
1 | 0
Зарубежные Мультфильмы (BDRip 1080p, 720p, Blu-ray, BD-Remux) [ 33.32 GB ] Тачки 3 / Cars 3 [2017 Мультфильм Blu-ray 1080p] DUB [] bober100 Скачать
1 | 0
Иностранные мультфильмы [ 1.46 GB ] Тачки 3 / Cars 3 [2017 мультфильм BDRip] - [] Twi7ter Скачать
2 | 0

28-11-2019 20:33  

Отключить всю рекламу на сайте

    Дорогой пользователь! Огромная просьба, поблагодарите релизера, оцените раздачу и оставьте свои комментарий, если Вы скачали Тачки 3 через торрент бесплатно! Внесите свою лепту в развитие PiratBit!
    Комментировать посты могут только пользователи прошедшие не сложную регистрацию
    Показать сообщения:    

    Тачки 3 через торрент
    Скачать бесплатно Тачки 3
    Тачки 3 скачать торрент
    Тачки 3 смотреть онлайн
    Cкачать фильм Тачки 3 бесплатно
    Тачки 3 скачать торрент в хорошем качестве
    Тачки 3 смотреть онлайн бесплатно в хорошем качестве


    Вы не можете начинать темы
    Вы не можете отвечать на сообщения
    Вы не можете редактировать свои сообщения
    Вы не можете удалять свои сообщения
    Вы не можете голосовать в опросах
    Вы не можете прикреплять файлы к сообщениям
    Вы можете скачивать файлы