Ссылка на приватное зеркало всего за 1$. Внимание количество ограничено!!!

iTunes

iTunes

iTunes

1

iTunes

iTunes

iTunes

iTunes

iTunes

30
pack

Новость дня

ВАЖНО

!!Акция!!

Alien_RageХит недели

RePack

Resident Evil 21

ИГРА 18+

pack

RePack

jed

!!Акция!!

Alien_Rage

RePack

fifa19

RePack

Assassins Creed: Odyssey

RePack

NEED FOR SPEED™ PAYBACK

4 сезон

9 сезон

Бесстыжие 9 сезон

Все сериалы

все сериалы на PB.wtf

RePack

FAR CRY 5
  

Дивергент / Divergent (Нил Бёргер) [2014, Фантастика, боевик, приключения, UHD BDRemux 2160p] DUB [Лицензия] piratbit.pw

Дивергент через торрент piratbit.pw

Размер: 56.69 GB | Добавлен: 2 года 3 мес. назад | Торрент скачан:21 раз
Скачать  

15-12-2017 16:39 Дивергент Скачать торрент  

Дивергент / DivergentГод выпуска: 2014
Страна: США
Жанр: Фантастика, боевик, приключения
Продолжительность: 02:19:40
Перевод: Дублированный | Лицензия
Субтитры: Русские (full), английские

Режиссер: Нил Бёргер

rating

В ролях:

Шейлин Вудли, Тео Джеймс, Эшли Джадд, Джай Кортни, Рэй Стивенсон, Зои Кравиц, Майлз Теллер, Тони Голдуин, Мэгги Кью, Кейт Уинслет

Описание:

В антиутопическом Чикаго будущего существует общество, члены которого придумали способ избегать конфликтов и поддерживать вокруг незыблемый порядок. Каждый человек по достижении 16 лет должен определить, к чему лежит его душа, и в зависимости от своих личностных качеств присоединиться к одной из пяти фракций — Искренность, Бесстрашие, Эрудиция, Дружелюбие или Отречение. Для того, чтобы и не ошибиться с фракцией, накануне церемонии выбора подростки проходят специальное тестирование. Юная Беатрис оказывается угрозой для всей сложившейся системы, когда тесты выявляют в ней дивергента — человека, которого невозможно однозначно определить в одну из фракций. Способные мыслить независимо и не питающие особого уважения к правительству, дивергенты одним своим существованием дискредитируют принципы, на которых строится общество. И теперь Беатрис — одна из таких людей, живущих вне закона и борющихся с системой, которая намерена любой ценой от них избавиться.

Качество: UHD BDRemux 2160p
Формат: MKV
Видео кодек: HEVC
Аудио кодек: AC3/DTS

Видео: MPEG-H HEVC HDR Video, 3840x2160, 51.0 Mbit/s, 23.976 fps
Аудио#1: 48 kHz, DTS-HD MA, 5.1, 1965 Kbps | Дублированный | RUS |
Аудио#2: 48 kHz, AC3, 5.1, 640 Kbps | Дублированный | RUS |
Аудио#3: 48 kHz, DTS-HD MA, 7.1, 4511 Kbps | Оригинал | ENG |

Релиз от:
скриншот  скриншот  скриншот  скриншот  скриншот  

General
Unique ID : 224212557000610290851773431501983731076 (0xA8ADC48AD6B5742E8CAA8064F2824D84)
Complete name : G:VideoSSDDivergent.2014.BDREMUX.2160p.4K.UltraHD.HEVC.HDR.ExKInoRay.mkv
Format : Matroska
Format version : Version 4 / Version 2
File size : 56.7 GiB
Duration : 2 h 19 min
Overall bit rate : 58.1 Mb/s
Movie name : Divergent 2014 from ExKinoRay
Encoded date : UTC 2017-12-15 14:59:06
Writing application : mkvmerge v18.0.0 ('Apricity') 64-bit
Writing library : libebml v1.3.5 + libmatroska v1.4.8

Video
ID : 1
Format : HEVC
Format/Info : High Efficiency Video Coding
Format profile : Main 10@L5.1@High
Codec ID : V_MPEGH/ISO/HEVC
Duration : 2 h 19 min
Bit rate : 51.0 Mb/s
Width : 3 840 pixels
Height : 2 160 pixels
Display aspect ratio : 16:9
Frame rate mode : Constant
Frame rate : 23.976 (24000/1001) FPS
Color space : YUV
Chroma subsampling : 4:2:0 (Type 2)
Bit depth : 10 bits
Bits/(Pixel*Frame) : 0.256
Stream size : 49.7 GiB (88%)
Writing library : ATEME Titan KFE 3.7.3 (4.7.3.1003)
Language : English
Default : Yes
Forced : No
Color range : Limited
Color primaries : BT.2020
Transfer characteristics : PQ
Matrix coefficients : BT.2020 non-constant
Mastering display color pri : R: x=0.680000 y=0.320000, G: x=0.265000 y=0.690000, B: x=0.150000 y=0.060000, White point: x=0.312700 y=0.329000
Mastering display luminance : min: 0.0050 cd/m2, max: 4000.0000 cd/m2

Audio #1
ID : 2
Format : DTS
Format/Info : Digital Theater Systems
Format profile : MA / Core
Mode : 16
Format settings, Endianness : Big
Codec ID : A_DTS
Duration : 2 h 19 min
Bit rate mode : Variable / Constant
Bit rate : 1 965 kb/s / 1 509 kb/s
Channel(s) : 6 channels
Channel positions : Front: L C R, Side: L R, LFE
Sampling rate : 48.0 kHz
Frame rate : 93.750 FPS (512 SPF)
Bit depth : 16 bits
Compression mode : Lossless / Lossy
Stream size : 1.92 GiB (3%)
Title : Dub [License]
Language : Russian
Default : Yes
Forced : No

Audio #2
ID : 3
Format : AC-3
Format/Info : Audio Coding 3
Format settings, Endianness : Big
Codec ID : A_AC3
Duration : 2 h 19 min
Bit rate mode : Constant
Bit rate : 640 kb/s
Channel(s) : 6 channels
Channel positions : Front: L C R, Side: L R, LFE
Sampling rate : 48.0 kHz
Frame rate : 31.250 FPS (1536 SPF)
Bit depth : 16 bits
Compression mode : Lossy
Stream size : 639 MiB (1%)
Title : Dub [License]
Language : Russian
Service kind : Complete Main
Default : No
Forced : No

Audio #3
ID : 4
Format : DTS
Format/Info : Digital Theater Systems
Format profile : X / MA / Core
Mode : 16
Format settings, Endianness : Big
Codec ID : A_DTS
Duration : 2 h 19 min
Bit rate mode : Variable / Variable / Constant
Bit rate : 4 511 kb/s / 4 511 kb/s / 1 509 kb/s
Channel(s) : Object Based / 8 channels / 6 channels
Channel positions : Object Based / Front: L C R, Side: L R, Back: L R, LFE / Front: L C R, Side: L R, LFE
Sampling rate : / 48.0 kHz / 48.0 kHz
Frame rate : 93.750 FPS (512 SPF)
Bit depth : / 24 bits / 24 bits
Compression mode : / Lossless / Lossy
Stream size : 4.40 GiB (8%)
Title : Original
Language : English
Default : No
Forced : No

Text #1
ID : 5
Format : UTF-8
Codec ID : S_TEXT/UTF8
Codec ID/Info : UTF-8 Plain Text
Duration : 2 h 10 min
Bit rate : 62 b/s
Count of elements : 1305
Stream size : 59.6 KiB (0%)
Title : Full
Language : Russian
Default : No
Forced : No

Text #2
ID : 6
Format : UTF-8
Codec ID : S_TEXT/UTF8
Codec ID/Info : UTF-8 Plain Text
Duration : 2 h 9 min
Bit rate : 38 b/s
Count of elements : 1321
Stream size : 36.2 KiB (0%)
Title : Full
Language : English
Default : No
Forced : No

Menu
00:00:00.000 : en:Chapter 01
00:07:57.477 : en:Chapter 03
00:15:29.595 : en:Chapter 05
00:23:31.034 : en:Chapter 07
00:33:56.617 : en:Chapter 09
00:38:52.955 : en:Chapter 11
00:44:24.328 : en:Chapter 13
00:53:37.505 : en:Chapter 15
01:00:02.682 : en:Chapter 17
01:06:32.071 : en:Chapter 19
01:13:19.603 : en:Chapter 21
01:20:08.136 : en:Chapter 23
01:28:41.441 : en:Chapter 25
01:35:54.957 : en:Chapter 27
01:46:19.372 : en:Chapter 29
01:57:54.692 : en:Chapter 31
02:19:40.163 : en:Chapter 32

piratbit.pw



Скачать Дивергент через торрент http://s019.radikal.ru/i615/1712/f6/1d682db80899.jpg Скачать фильм Дивергент через торрент бесплантно в хорошем качестве Описание: В антиутопическом Чикаго будущего существует общество, члены которого придумали способ избегать конфликтов и поддерживать вокруг ... 9.4 10 5
Info! Золотая раздача, скачанное не засчитывается.
Торрент: Зарегистрирован [2017-12-15 16:39] · скачан: 21 раз
Статус: √ проверено
Размер: 56.69 GB
Как cкачать? Как скачать Дивергент через торрент | qTorrent

% Раздел Тема Автор DL S | L
Ultra HD (UHD: 2K, 4K, 8K) — видео сверхвысокой чёткости [ 191.12 GB ] Дивергент [Главы 1-3] / Divergent [Chapters 1-3] [2014-2016 UHD Blu-ray 2160p] DUB sheker187 Скачать
2 | 0
Фильмы [HD 720p, 1080p] (Хороший звук DUB, MVO) [ 6.93 GB ] Дивергент / Divergent [2014 BDRip 720p -=DANTE=- Скачать
1 | 0
Фильмы 2014 [DVDrip, WEB-DLRip, HDrip] [ 2.18 GB ] Дивергент / Divergent [2014 BDRip-AVC] [US Transfer] DUB potroks Скачать
1 | 0
Фильмы 2014 [DVDrip, WEB-DLRip, HDrip] [ 1.37 GB ] Дивергент / Divergent [2014 WEB-DLRip ] MihailHD Скачать
1 | 0
# Фильмы 2014 [DVDrip, WEB-DLRip, HDrip] [ 2.05 GB ] Дивергент / Divergent [2014 BDRip ""] coc900 Скачать
1 | 0
Фильмы 2014 [DVDrip, WEB-DLRip, HDrip] [ 2.06 GB ] Дивергент / Divergent [2014 HDRip ] Ворон Скачать
1 | 0
Фильмы 2014 [DVDrip, WEB-DLRip, HDrip] [ 1.4 GB ] Дивергент / Divergent [2014 HDRip-AVC От R.G. PiratFilms White Smoke Скачать
1 | 0

28-11-2019 20:33  

Отключить всю рекламу на сайте

    Дорогой пользователь! Огромная просьба, поблагодарите релизера, оцените раздачу и оставьте свои комментарий, если Вы скачали Дивергент через торрент бесплатно! Внесите свою лепту в развитие PiratBit!
    Комментировать посты могут только пользователи прошедшие не сложную регистрацию
    Показать сообщения:    

    Дивергент через торрент
    Скачать бесплатно Дивергент
    Дивергент скачать торрент
    Дивергент смотреть онлайн
    Cкачать фильм Дивергент бесплатно
    Дивергент скачать торрент в хорошем качестве
    Дивергент смотреть онлайн бесплатно в хорошем качестве


    Вы не можете начинать темы
    Вы не можете отвечать на сообщения
    Вы не можете редактировать свои сообщения
    Вы не можете удалять свои сообщения
    Вы не можете голосовать в опросах
    Вы не можете прикреплять файлы к сообщениям
    Вы можете скачивать файлы