Ссылка на приватное зеркало всего за 1$. Внимание количество ограничено!!!

iTunes

iTunes

iTunes

1

iTunes

iTunes

iTunes

iTunes

iTunes

30
pack

Новость дня

ВАЖНО

!!Акция!!

Alien_RageХит недели

RePack

Resident Evil 21

ИГРА 18+

pack

RePack

jed

!!Акция!!

Alien_Rage

RePack

fifa19

RePack

Assassins Creed: Odyssey

RePack

NEED FOR SPEED™ PAYBACK

4 сезон

9 сезон

Бесстыжие 9 сезон

Все сериалы

все сериалы на PB.wtf

RePack

FAR CRY 5
  

Дивергент, глава 3: За стеной / Allegiant (Роберт Швентке) [2016, Фантастика, боевик, приключения, UHD BDRemux 2160p] DUB [Лицензия] piratbit.pw

Дивергент, глава 3: За стеной через торрент piratbit.pw

Размер: 55.3 GB | Добавлен: 2 года 3 мес. назад | Торрент скачан:43 раза
Скачать  

15-12-2017 06:36 Дивергент, глава 3: За стеной Скачать торрент  

Дивергент, глава 3: За стеной / AllegiantГод выпуска: 2016
Страна: США
Жанр: Фантастика, боевик, приключения
Продолжительность: 02:00:33
Перевод: Дублированный | Лицензия
Субтитры: английские

Режиссер: Роберт Швентке

rating

В ролях:

Шейлин Вудли, Тео Джеймс, Энсел Элгорт, Зои Кравиц, Майлз Теллер, Джефф Дэниелс, Наоми Уоттс, Мэгги Кью, Билл Скарсгард, Кейнан Лонсдейл, Надиа Хилкер, Октавия Спенсер, Дэниэл Дэ Ким, Джонни Уэстон, Энди Бин, Рэй Стивенсон, Мекхай Файфер, Джозеф Дэвид-Джонс, Эшли Джадд, Джош Давендек

Описание:

Джанин мертва и Влacть над Чикаго от Эрудитов переходит к афракционерам во главе с Эвелин. Они начинают разрушать фракционную систему и не выпускают никого за пределы города. Это вызывает волну недовольства и контрреволюционные настроения. Часть людей объединяется вокруг Джоанны Рейес, называя себя эллигентами. Их группа готова бороться за возвращение фракций. Вооруженное противостояние неизбежно. Между тем, Трис и Фор отправляются в неведомый мир за городской стеной, чтобы найти отцов-основателей нового мирового порядка и узнать шокирующую правду.

Качество: UHD BDRemux 2160p
Формат: MKV
Видео кодек: HEVC
Аудио кодек: AC3/DTS

Видео: MPEG-H HEVC HDR Video, 3840x2160, 58.0 Mbit/s, 23.976 fps
Аудио#1: 48 kHz, DTS, 5.1, 1510 Kbps | Дублированный | RUS |
Аудио#2: 48 kHz, AC3, 5.1, 640 Kbps | Дублированный | RUS |
Аудио#3: 48 kHz, TrueHD, 7.1, 4815 Kbps | Оригинал | ENG |
Аудио#4: 48 kHz, AC3, 5.1, 640 Kbps | Оригинал | ENG |

Релиз от:
скриншот  скриншот  скриншот  скриншот  скриншот  

General
Unique ID : 175165564756988621342886824168472790275 (0x83C7A91FA4DAE252B584694E19C54503)
Complete name : G:VideoSSDAllegiant.2016.BDREMUX.2160p.4K.UltraHD.HEVC.HDR.ExKinoRay.mkv
Format : Matroska
Format version : Version 4 / Version 2
File size : 55.3 GiB
Duration : 2 h 0 min
Overall bit rate mode : Variable
Overall bit rate : 65.7 Mb/s
Movie name : Allegiant 2016 from ExKinoRay
Encoded date : UTC 2017-12-15 05:37:46
Writing application : mkvmerge v18.0.0 ('Apricity') 64-bit
Writing library : libebml v1.3.5 + libmatroska v1.4.8

Video
ID : 1
Format : HEVC
Format/Info : High Efficiency Video Coding
Format profile : Main 10@L5.1@High
Codec ID : V_MPEGH/ISO/HEVC
Duration : 2 h 0 min
Bit rate : 58.0 Mb/s
Width : 3 840 pixels
Height : 2 160 pixels
Display aspect ratio : 16:9
Frame rate mode : Constant
Frame rate : 23.976 (24000/1001) FPS
Color space : YUV
Chroma subsampling : 4:2:0 (Type 2)
Bit depth : 10 bits
Bits/(Pixel*Frame) : 0.292
Stream size : 48.8 GiB (88%)
Writing library : ATEME Titan KFE 3.7.3 (4.7.3.1003)
Language : English
Default : Yes
Forced : No
Color range : Limited
Color primaries : BT.2020
Transfer characteristics : PQ
Matrix coefficients : BT.2020 non-constant
Mastering display color pri : R: x=0.680000 y=0.320000, G: x=0.265000 y=0.690000, B: x=0.150000 y=0.060000, White point: x=0.312700 y=0.329000
Mastering display luminance : min: 0.0050 cd/m2, max: 4000.0000 cd/m2

Audio #1
ID : 2
Format : DTS
Format/Info : Digital Theater Systems
Mode : 16
Format settings, Endianness : Big
Codec ID : A_DTS
Duration : 2 h 0 min
Bit rate mode : Constant
Bit rate : 1 509 kb/s
Channel(s) : 6 channels
Channel positions : Front: L C R, Side: L R, LFE
Sampling rate : 48.0 kHz
Frame rate : 93.750 FPS (512 SPF)
Bit depth : 24 bits
Compression mode : Lossy
Stream size : 1.27 GiB (2%)
Title : Dub [License]
Language : Russian
Default : Yes
Forced : No

Audio #2
ID : 3
Format : AC-3
Format/Info : Audio Coding 3
Format settings, Endianness : Big
Codec ID : A_AC3
Duration : 2 h 0 min
Bit rate mode : Constant
Bit rate : 640 kb/s
Channel(s) : 6 channels
Channel positions : Front: L C R, Side: L R, LFE
Sampling rate : 48.0 kHz
Frame rate : 31.250 FPS (1536 SPF)
Bit depth : 16 bits
Compression mode : Lossy
Stream size : 552 MiB (1%)
Title : Dub [License]
Language : Russian
Service kind : Complete Main
Default : No
Forced : No

Audio #3
ID : 4
Format : TrueHD
Format profile : TrueHD+Atmos / TrueHD
Codec ID : A_TRUEHD
Duration : 2 h 0 min
Bit rate mode : Variable
Bit rate : 4 815 kb/s
Maximum bit rate : 8 859 kb/s
Channel(s) : Object Based / 8 channels
Channel positions : Object Based / Front: L C R, Side: L R, Back: L R, LFE
Sampling rate : / 48.0 kHz
Frame rate : 1 200.000 FPS (40 SPF)
Compression mode : Lossless
Stream size : 4.05 GiB (7%)
Title : Original
Language : English
Default : No
Forced : No

Audio #4
ID : 5
Format : AC-3
Format/Info : Audio Coding 3
Format settings, Endianness : Big
Codec ID : A_AC3
Duration : 2 h 0 min
Bit rate mode : Constant
Bit rate : 640 kb/s
Channel(s) : 6 channels
Channel positions : Front: L C R, Side: L R, LFE
Sampling rate : 48.0 kHz
Frame rate : 31.250 FPS (1536 SPF)
Bit depth : 16 bits
Compression mode : Lossy
Stream size : 552 MiB (1%)
Language : English
Service kind : Complete Main
Default : No
Forced : No

Text
ID : 6
Format : UTF-8
Codec ID : S_TEXT/UTF8
Codec ID/Info : UTF-8 Plain Text
Duration : 1 h 48 min
Bit rate : 45 b/s
Count of elements : 1173
Stream size : 36.3 KiB (0%)
Title : Full
Language : English
Default : No
Forced : No

Menu
00:00:00.000 : en:Chapter 1
00:09:46.336 : en:Chapter 2
00:16:54.305 : en:Chapter 3
00:25:52.092 : en:Chapter 4
00:32:45.213 : en:Chapter 5
00:37:26.202 : en:Chapter 6
00:45:49.538 : en:Chapter 7
00:53:31.458 : en:Chapter 8
00:58:18.245 : en:Chapter 9
01:07:21.162 : en:Chapter 10
01:13:46.714 : en:Chapter 11
01:19:51.036 : en:Chapter 12
01:26:40.237 : en:Chapter 13
01:33:12.128 : en:Chapter 14
01:40:24.060 : en:Chapter 15
01:46:18.872 : en:Chapter 16

piratbit.pw



Скачать Дивергент, глава 3: За стеной через торрент http://s16.radikal.ru/i191/1712/ff/6303074bc791.jpg Скачать фильм Дивергент, глава 3: За стеной через торрент бесплантно в хорошем качестве Описание: Джанин мертва и Влacть над Чикаго от Эрудитов переходит к афракционерам во главе с Эвелин. Они начинают разрушать фракционную ... 10 10 4
Info! Золотая раздача, скачанное не засчитывается.
Торрент: Зарегистрирован [2017-12-15 06:36] · скачан: 43 раз
Статус: √ проверено
Размер: 55.3 GB
Как cкачать? Как скачать Дивергент, глава 3: За стеной через торрент | qTorrent

% Раздел Тема Автор DL S | L
Фильмы [HD 720p, 1080p] (Хороший звук DUB, MVO) [ 5.73 GB ] Дивергент глава 3: За стеной / Allegiant [2016 BDRip 720p] potroks Скачать
1 | 0
Фильмы [HD 720p, 1080p] (Хороший звук DUB, MVO) [ 15.99 GB ] Дивергент глава 3: За стеной / Allegiant [2016 BDRip 1080p [] smaster Скачать
1 | 0
Фильмы без перевода [ 33.63 GB ] Дивергент глава 3: За стеной / Allegiant [2016 BD Remux [Оригинал] smaster Скачать
1 | 0
Фильмы (DVD фильмы) [ 7.33 GB ] Дивергент глава 3: За стеной / Allegiant [2016 DVD9] R5 Dub voovaz Скачать
1 | 0
Фильмы (Blu-ray, BD-Remux, HDDVD) [ 20.36 GB ] Дивергент глава 3: За стеной / Allegiant [2016 Blu-ray disc 1080p] [RUS] Dub voovaz Скачать
1 | 0
Фильмы 2016 [DVDrip, WEB-DLRip, HDrip] (DUB, MVO) [ 1.46 GB ] Дивергент глава 3: За стеной / Allegiant [2016 BDRip] DUB Twi7ter Скачать
1 | 0
Фильмы (Blu-ray, BD-Remux, HDDVD) [ 34.62 GB ] Дивергент глава 3: За стеной / Allegiant BDRemux 1080p от ExKinoRay / Ворон Скачать
1 | 0

28-11-2019 20:33  

Отключить всю рекламу на сайте

    Дорогой пользователь! Огромная просьба, поблагодарите релизера, оцените раздачу и оставьте свои комментарий, если Вы скачали Дивергент, глава 3: За стеной через торрент бесплатно! Внесите свою лепту в развитие PiratBit!
    Комментировать посты могут только пользователи прошедшие не сложную регистрацию
    Показать сообщения:    

    Дивергент, глава 3: За стеной через торрент
    Скачать бесплатно Дивергент, глава 3: За стеной
    Дивергент, глава 3: За стеной скачать торрент
    Дивергент, глава 3: За стеной смотреть онлайн
    Cкачать фильм Дивергент, глава 3: За стеной бесплатно
    Дивергент, глава 3: За стеной скачать торрент в хорошем качестве
    Дивергент, глава 3: За стеной смотреть онлайн бесплатно в хорошем качестве


    Вы не можете начинать темы
    Вы не можете отвечать на сообщения
    Вы не можете редактировать свои сообщения
    Вы не можете удалять свои сообщения
    Вы не можете голосовать в опросах
    Вы не можете прикреплять файлы к сообщениям
    Вы можете скачивать файлы