Ссылка на приватное зеркало всего за 1$. Внимание количество ограничено!!!

iTunes

iTunes

iTunes

1

iTunes

iTunes

iTunes

iTunes

iTunes

30
pack

Новость дня

ВАЖНО

!!Акция!!

Alien_RageХит недели

RePack

Resident Evil 21

ИГРА 18+

pack

RePack

jed

!!Акция!!

Alien_Rage

RePack

fifa19

RePack

Assassins Creed: Odyssey

RePack

NEED FOR SPEED™ PAYBACK

4 сезон

9 сезон

Бесстыжие 9 сезон

Все сериалы

все сериалы на PB.wtf

RePack

FAR CRY 5
  

Пэн: Путешествие в Нетландию / Pan (Джо Райт ) [2015, фэнтези, приключения, семейный, UHD BDRemux 2160p] Дубляж - [Лицензия] piratbit.pw

Пэн: Путешествие в Нетландию через торрент piratbit.pw

Размер: 48.38 GB | Добавлен: 2 года 3 мес. назад | Торрент скачан:39 раз
Скачать  

13-12-2017 16:29 Пэн: Путешествие в Нетландию Скачать торрент  

Пэн: Путешествие в Нетландию / Pan«У каждой легенды есть своё начало»
Год выпуска: 2015
Страна: США, Великобритания, Австралия
Жанр: фэнтези, приключения, семейный
Продолжительность: 01:51:32
Перевод: Дубляж - [Лицензия]
Субтитры: Русские (Forced, Full), английские (Full, SDH)
Режиссер: Джо Райт
В ролях:

Хью Джекман (Blackbeard), Леви Миллер (Peter), Гаррет Хедлунд (Hook), Руни Мара (Tiger Lily), Адиль Ахтар (Sam Smiegel), Нонсо Анози (Bishop), Аманда Сайфред (Mary), Кэти Бёрк (Mother Barnabas), Льюис МакДугалл (Nibs), Кара Делевинь (Mermaids), Тхэ-чжу На (Kwahu), Джек Чарльз (Chief)
Описание:
История о сироте, который попал в волшебную Нетландию, где его поджидали опасные приключения. Там он понял, что его судьба - стать героем, который навсегда останется известен под именем Питер Пэн.
Рейтинг:

MPAA: PG - Рекомендуется присутствие родителей
Качество: UHD BDRemux 2160p
Формат: MKV
Видео: MPEG-H HEVC HDR Video, 3840x2160, 55.2 Mbit/s, 23.976 fps
Аудио #01: 48 kHz, AC3, 5.1, 640 Kbps | Дублированный | RUS |
Аудио #02: 48 kHz, TrueHD, 7.1, 5616 Kbps | Оригинал | ENG |
Аудио #03: 48 kHz, AC3, 5.1, 448 Kbps | Оригинал | ENG |
Навигация по главам: есть
General
Unique ID : 178178287287720133465177829173407101383 (0x860BE3D00221AF1BA7E7AB1F4565B1C7)
Complete name : I:Video1Pan.2015.BDREMUX.2160p.4K.UltraHD.HEVC.HDR.ExKinoRay.mkv
Format : Matroska
Format version : Version 4 / Version 2
File size : 48.4 GiB
Duration : 1 h 52 min
Overall bit rate mode : Variable
Overall bit rate : 61.3 Mb/s
Movie name : Pan 2015 from ExKinoRay
Encoded date : UTC 2017-12-13 15:18:06
Writing application : mkvmerge v18.0.0 ('Apricity') 64-bit
Writing library : libebml v1.3.5 + libmatroska v1.4.8

Video
ID : 1
Format : HEVC
Format/Info : High Efficiency Video Coding
Format profile : Main 10@L5.1@High
Codec ID : V_MPEGH/ISO/HEVC
Duration : 1 h 51 min
Bit rate : 55.2 Mb/s
Width : 3 840 pixels
Height : 2 160 pixels
Display aspect ratio : 16:9
Frame rate mode : Constant
Frame rate : 23.976 (24000/1001) FPS
Color space : YUV
Chroma subsampling : 4:2:0 (Type 2)
Bit depth : 10 bits
Bits/(Pixel*Frame) : 0.278
Stream size : 43.0 GiB (89%)
Writing library : ATEME Titan KFE 3.7.3 (4.7.3.1001)
Language : English
Default : Yes
Forced : No
Color range : Limited
Color primaries : BT.2020
Transfer characteristics : PQ
Matrix coefficients : BT.2020 non-constant
Mastering display color pri : R: x=0.680000 y=0.320000, G: x=0.265000 y=0.690000, B: x=0.150000 y=0.060000, White point: x=0.312700 y=0.329000
Mastering display luminance : min: 0.0050 cd/m2, max: 4000.0000 cd/m2

Audio #1
ID : 2
Format : AC-3
Format/Info : Audio Coding 3
Format settings, Endianness : Big
Codec ID : A_AC3
Duration : 1 h 51 min
Bit rate mode : Constant
Bit rate : 640 kb/s
Channel(s) : 6 channels
Channel positions : Front: L C R, Side: L R, LFE
Sampling rate : 48.0 kHz
Frame rate : 31.250 FPS (1536 SPF)
Bit depth : 16 bits
Compression mode : Lossy
Stream size : 511 MiB (1%)
Title : Dub [License]
Language : Russian
Service kind : Complete Main
Default : Yes
Forced : Yes

Audio #2
ID : 3
Format : TrueHD
Format profile : TrueHD+Atmos / TrueHD
Codec ID : A_TRUEHD
Duration : 1 h 52 min
Bit rate mode : Variable
Bit rate : 5 616 kb/s
Maximum bit rate : 8 229 kb/s
Channel(s) : Object Based / 8 channels
Channel positions : Object Based / Front: L C R, Side: L R, Back: L R, LFE
Sampling rate : / 48.0 kHz
Frame rate : 1 200.000 FPS (40 SPF)
Compression mode : Lossless
Stream size : 4.43 GiB (9%)
Title : Original
Language : English
Default : No
Forced : No

Audio #3
ID : 4
Format : AC-3
Format/Info : Audio Coding 3
Format settings, Endianness : Big
Codec ID : A_AC3
Duration : 1 h 52 min
Bit rate mode : Constant
Bit rate : 448 kb/s
Channel(s) : 6 channels
Channel positions : Front: L C R, Side: L R, LFE
Sampling rate : 48.0 kHz
Frame rate : 31.250 FPS (1536 SPF)
Bit depth : 16 bits
Compression mode : Lossy
Stream size : 362 MiB (1%)
Language : English
Service kind : Complete Main
Default : No
Forced : No

Text #1
ID : 5
Format : UTF-8
Codec ID : S_TEXT/UTF8
Codec ID/Info : UTF-8 Plain Text
Duration : 1 h 41 min
Bit rate : 0 b/s
Count of elements : 16
Stream size : 664 Bytes (0%)
Title : Forsed
Language : Russian
Default : Yes
Forced : Yes

Text #2
ID : 6
Format : UTF-8
Codec ID : S_TEXT/UTF8
Codec ID/Info : UTF-8 Plain Text
Duration : 1 h 42 min
Bit rate : 67 b/s
Count of elements : 1189
Stream size : 50.6 KiB (0%)
Title : Full
Language : Russian
Default : No
Forced : No

Text #3
ID : 7
Format : UTF-8
Codec ID : S_TEXT/UTF8
Codec ID/Info : UTF-8 Plain Text
Duration : 1 h 42 min
Bit rate : 43 b/s
Count of elements : 1220
Stream size : 32.5 KiB (0%)
Title : Full
Language : English
Default : No
Forced : No

Text #4
ID : 8
Format : UTF-8
Codec ID : S_TEXT/UTF8
Codec ID/Info : UTF-8 Plain Text
Duration : 1 h 42 min
Bit rate : 44 b/s
Count of elements : 1243
Stream size : 33.7 KiB (0%)
Title : SDH
Language : English
Default : No
Forced : No

Menu
00:00:00.000 : en:Chapter 01
00:10:28.044 : en:Chapter 02
00:19:45.809 : en:Chapter 03
00:31:07.282 : en:Chapter 04
00:39:13.893 : en:Chapter 05
00:48:27.738 : en:Chapter 06
01:00:07.520 : en:Chapter 07
01:09:29.331 : en:Chapter 08
01:20:12.432 : en:Chapter 09
01:30:02.855 : en:Chapter 10
01:39:50.985 : en:Chapter 11
01:43:05.888 : en:Chapter 12
piratbit.pw



Скачать Пэн: Путешествие в Нетландию через торрент http://i99.fastpic.ru/big/2017/1213/2e/e326c067f7695f6d9888998dc2c84d2e.png Скачать фильм Пэн: Путешествие в Нетландию через торрент бесплантно в хорошем качестве Описание: История о сироте, который попал в волшебную Нетландию, где его поджидали опасные приключения. Там он понял, что его судьба - ... 10 10 1
Info! Золотая раздача, скачанное не засчитывается.
Торрент: Зарегистрирован [2017-12-13 16:29] · скачан: 39 раз
Статус: √ проверено
Размер: 48.38 GB
Как cкачать? Как скачать Пэн: Путешествие в Нетландию через торрент | qTorrent

% Раздел Тема Автор DL S | L
3D Фильмы [ 37.39 GB ] Пэн: Путешествие в Нетландию 3D / Pan 3D [2015 Blu-ray disc 1080p] DUB BD CEE voovaz Скачать
1 | 0
Фильмы 2015 [DVDrip, WEB-DLRip, HDrip] [ 2.19 GB ] Пэн: Путешествие в Нетландию / Pan [2015 HDRip "BD CEE"] coc900 Скачать
1 | 0
Фильмы (HD 720p, 1080p) (48-60 fps) [ 5.19 GB ] Пэн: Путешествие в Нетландию / Pan [2015 BDRip 720p 60fps от еnvy / NNNB] DUB еnvy Скачать
4 | 0
Фильмы (Blu-ray, BD-Remux, HDDVD) [ 23.81 GB ] Пэн: Путешествие в Нетландию / Pan [2015 BD Remux ] Бумер Скачать
1 | 0
Фильмы 2015 [DVDrip, WEB-DLRip, HDrip] [ 1.46 GB ] Пэн: Путешествие в Нетландию / Pan [2015 BDRip] DUB Twi7ter Скачать
2 | 0
3D Фильмы [ 15.03 GB ] Пэн: Путешествие в Нетландию / Pan [2015 BDrip 1080p] DUB OverUnder / Вертикальная стереопара serega768 Скачать
1 | 0
Фильмы (Blu-ray, BD-Remux, HDDVD) [ 34.96 GB ] Пэн: Путешествие в Нетландию / Pan [2015 Blu-Ray] от BlueBird / лицензия Russian Mafia Скачать
1 | 0

28-11-2019 20:33  

Отключить всю рекламу на сайте

    Дорогой пользователь! Огромная просьба, поблагодарите релизера, оцените раздачу и оставьте свои комментарий, если Вы скачали Пэн: Путешествие в Нетландию через торрент бесплатно! Внесите свою лепту в развитие PiratBit!
    Комментировать посты могут только пользователи прошедшие не сложную регистрацию
    Показать сообщения:    

    Пэн: Путешествие в Нетландию через торрент
    Скачать бесплатно Пэн: Путешествие в Нетландию
    Пэн: Путешествие в Нетландию скачать торрент
    Пэн: Путешествие в Нетландию смотреть онлайн
    Cкачать фильм Пэн: Путешествие в Нетландию бесплатно
    Пэн: Путешествие в Нетландию скачать торрент в хорошем качестве
    Пэн: Путешествие в Нетландию смотреть онлайн бесплатно в хорошем качестве


    Вы не можете начинать темы
    Вы не можете отвечать на сообщения
    Вы не можете редактировать свои сообщения
    Вы не можете удалять свои сообщения
    Вы не можете голосовать в опросах
    Вы не можете прикреплять файлы к сообщениям
    Вы можете скачивать файлы