Ссылка на приватное зеркало всего за 1$. Внимание количество ограничено!!!

iTunes

iTunes

iTunes

1

iTunes

iTunes

iTunes

iTunes

iTunes

30
pack

Новость дня

ВАЖНО

!!Акция!!

Alien_RageХит недели

RePack

Resident Evil 21

ИГРА 18+

pack

RePack

jed

!!Акция!!

Alien_Rage

RePack

fifa19

RePack

Assassins Creed: Odyssey

RePack

NEED FOR SPEED™ PAYBACK

4 сезон

9 сезон

Бесстыжие 9 сезон

Все сериалы

все сериалы на PB.wtf

RePack

FAR CRY 5
  

Kingsman: Секретная служба / Kingsman: The Secret Service (Мэттью Вон) [2014 г., боевик, комедия, криминал, UHD BDRemux 2160p] DUB (Rus, Ukr) + 3x AVO + ENG + Subs piratbit.pw

Kingsman: Секретная служба через торрент piratbit.pw

Раздают: 1 [ 0 KB/s ]
Размер: 48.44 GB | Добавлен: 2 года 3 мес. назад | Торрент скачан:40 раз
Скачать  

13-12-2017 13:11 Kingsman: Секретная служба Скачать торрент  

    Kingsman: Секретная служба / Kingsman: The Secret Service Год выпуска: 2014
    Страна: Великобритания, США
    Производство: 20th Century Fox Film Corporation, Cloudy Productions, Marv Films, TSG Entertainment,
    Жанр: Боевик, комедия, криминал, приключения

    Режиссёр: Мэттью Вон
    В ролях: Тэрон Эджертон, Колин Фёрт, Сэмюэл Л. Джексон, Марк Стронг, Софи Куксон, Майкл Кейн, София Бутелла, Саманта Янус, Джофф Белл, Марк Хэмилл

    Перевод: Профессиональный (полное дублирование), Авторский (одноголосый, закадровый) [Матвеев], Авторский (одноголосый, закадровый) [Сербин], Авторский (одноголосый, закадровый) [Володарский], Украинский, Оригинал (Английский)
    Субтитры: Русские (forced, full), украинские (forced, full), английские (forced, full, SDH, SDH Colored)

    Описание: Эггси — молодой парень, который прошел службу в морской пехоте и имеет очень высокий уровень интеллекта. Он мог бы добиться многого, но выбрал другой путь и стал мелким преступником. Однажды он знакомится с Гарри Хартом, которому его отец когда-то спас жизнь. Этот человек решил сделать все возможное, чтобы сделать жизнь Эггси лучше и открыть для него новые возможности.

    Гарри рассказал ему, что является агентом секретной независимой организации, которая стоит на защите всего мира. Он предложил парню пройти обучение и стать новым членом их команды. Эггси принял предложение Харта, но сможет ли он справиться со всеми испытаниями и оправдать его надежды?..



    Качество: Blu-ray UHD HDR Remux 2160p
    Продолжительность: 02:08:44

    Формат: MKV
    Видео кодек: HEVC
    Аудио кодек: AС3, DTS, DTS-HD MA
    Видео: 3840 x2160 (16:9), 23.976 fps, XviD ~ 45,2 Mbps avg, 0.227 bit/pixel
    Аудио#1: DTS, 48 kHz, 6 ch, ~ 768.00 kbps avg | Профессиональный (полное дублирование)
    Аудио#2: AC3, 48 kHz, 6 ch, ~ 640.00 kbps avg | Авторский (одноголосый, закадровый) [Матвеев]
    Аудио#3: AC3, 48 kHz, 6 ch, ~ 640.00 kbps avg | Авторский (одноголосый, закадровый) [Сербин]
    Аудио#4: AC3, 48 kHz, 6 ch, ~ 640.00 kbps avg | Авторский (одноголосый, закадровый) [Володарский]
    Аудио#5: AC3, 48 kHz, 6 ch, ~ 448.00 kbps avg | Украинский
    Аудио#6: AC3, 48 kHz, 6 ch, ~ 640.00 kbps avg | Оригинал (Английский)
    Аудио#7: DTS-HD MA, 48 kHz, 8 ch, ~ 4935 kbps avg | Оригинал (Английский)
    Фильм был снят по мотивам комикса «The Secret Service» (Секретная служба) авторов Марка Миллара и Дэйва Гиббонса.
    Эмма Уотсон и Белла Хиткот рассматривались на главную женскую роль.
    По сценарию персонаж Сэмюэла Л. Джексона не шепелявил, однако во время первого дубля режиссер Мэттью Вон услышал, как он все же шепелявил. Поговорив с актером, Вон узнал, что до актерской карьеры Джексон на самом деле шепелявил, но в итоге сумел избавиться от этого расстройства речи.
    В комиксе «Secret Service» (Секретная служба) персонаж Газель был мужчиной, а не женщиной, как это показано в фильме.
    Актер Колин Фёрт выполнил 80% своих трюков самостоятельно.
    Колин Фёрт тренировался в течение шести месяцев, чтобы набрать необходимую физическую форму для своей роли.
    Режиссер Мэттью Вон отказался заниматься режиссурой фильма «Люди Икс: Дни минувшего будущего» (2014), чтобы возглавить этот проект.
    Режиссер Мэттью Вон хотел, чтобы у Мерлина (Марк Стронг) был валлийский акцент, но это оказалось слишком сложной задачей для него, и в итоге Стронг убедил режиссера позволить ему вместо этого использовать шотландский акцент.
    Леонардо ДиКаприо, Том Круз и Идрис Эльба рассматривались на роль Ричмонда, но в итоге роль досталась Сэмюэлю Л. Джексону.
    На роль Эггси пробовались более шестидесяти актеров. Главными кандидатурами были Джек О`Коннелл, Джон Бойега и Тэрон Эджертон. Также роль Эггси предлагали Аарону Тейлору-Джонсону, но он отказался. В итоге Мэттью Вон отдал предпочтение Эджертону.
    Был момент, когда Оскар Писториус (Oscar Pistorius), бегун на короткие дистанции из ЮАР с ампутированными конечностями обеих ног ниже колен, предлагал свою кандидатуру на роль персонажа по имени Газель. При этом представителей Писториуса спрашивали, сможет ли он убедительно исполнить роль убийцы. Однако в итоге он отказался от роли, решив сосредоточиться на подготовке к грядущим спортивным событиям, а некоторое время спустя, в феврале 2013 года, Писториус застрелил свою девушку — Реву Стенкамп (Reeva Steenkamp).
    Мэттью Вон советовал Колину Фёрту для создания образа Гарри Харта ориентироваться больше на Дэвида Нивена, нежели на Роджера Мура.
    Магазин Kingsman, который можно увидеть в фильме, был создан по образу всемирно известного швейного магазина Huntsman. Художник-постановщик Пол Кирби и его команда построили магазин Kingsman в павильоне студии в Ливесдене (Хартфордшир, Великобритания), а портные из Huntsman одолжили им некоторые предметы реквизита, чтобы магазин выглядел более правдоподобно.
    Софии Бутелле пришлось пройти курс интенсивных тренировок для подготовки к ее роли. Среди них были тренировки по тайскому боксу и тхэквондо.
    Во время финальных титров фильма звучит песня «Get Ready For It» группы Take That.
    Для создания костюмов сотрудников секретной службы художник Арианна Филлипс объединилась с интернет магазином одежды Mrporter.com.
    Съемки в штаб-квартире секретной службы Kingsman проходили в доме моды Savile Row.
    В трейлере фильма звучит песня Дэвида Боуи — «Suffragette City».
    В одной из первых сцен фильма в идущем фоном выпуске новостей можно услышать, как ведущая рассказывает об исчезновении певицы Игги Азалия, местонахождение которой до сих пор не известно. Игги Азалия является исполнительницей песни Heavy Crown, звучащей в одном из трейлеров фильма и в финальных титрах.
    По сюжету оригинального комикса похищенным является не персонаж профессор Арнольд, а актер Марк Хэммил, сыгравший в фильме роль профессора Арнольда.
    В одной из сцен с обложками газеты «The Sun» есть обложка с текстом «Брэд Питт съел мой сэндвич».
    В фильме довольно часто мелькают кроссовки от Adidas (их носят протагонист и антагонист). Главный герой, по сюжету, из небогатой семьи и не может позволить себе дорогие вещи. Однако в некоторых моментах можно заметить на его ногах Adidas Wings by Jeremy Scott, цена которых составляет $200.
    Когда Галахад рассказывает Эггси о Kingsman, он говорит, что «Kingsman одевает самых влиятельных людей мира с 1849 года». Именно в этом году был создан швейный магазин Huntsman, по образу которого и сделан Kingsman.
    Отчима Эггси Дина сыграл Джофф Белл, известный по роли лидера хулиганской группировки ФК «Миллуолл» в фильме «Хулиганы»; шарф именно этого футбольного клуба висит у Эггси на зеркале в комнате.
    Когда герой Сэмюэля Л. Джексона разговаривает с принцессой через отверстие в двери ее клетки, можно заметить, что его расположение меняется при смене кадра.
    Когда Эггси находится в полицейском участке, он говорит, что хочет воспользоваться своим правом на телефонный звонок. На общем плане на столе никакого телефона нет, но после смены кадра Эггси снимает трубку с телефона, который там неожиданно появился.
    В сцене, где Артур с Эггси пьют коньяк, бокал Артура то пустеет, то наполняется.
    На 61-й минуте когда действие фильма происходит в клубе, у главного героя несколько раз то появляется, то исчезает золотая цепочка на шее.
    General
    Unique ID : 176996551200610594094089098011036713307 (0x85284BB99E2665ACBF4CF427EA01815B)
    Complete name : ingsman.The.Secret.Service.2014.2160p.BluRay.HEVC.DTS-HD.MA.7.1.IVA(4xRUS.UKR.ENG).mkv
    Format : Matroska
    Format version : Version 4 / Version 2
    File size : 48.4 GiB
    Duration : 2 h 8 min
    Overall bit rate : 53.9 Mb/s
    Movie name : Kingsman.The.Secret.Service.2014.2160p.BluRay.HEVC.DTS-HD.MA.7.1
    Encoded date : UTC 2017-12-13 04:11:08
    Writing application : mkvmerge v18.0.0 ('Apricity') 64-bit
    Writing library : libebml v1.3.5 + libmatroska v1.4.8
    Cover : Yes
    Attachments : cover.jpg

    Video
    ID : 1
    Format : HEVC
    Format/Info : High Efficiency Video Coding
    Format profile : Main 10@L5.1@High
    Codec ID : V_MPEGH/ISO/HEVC
    Duration : 2 h 8 min
    Bit rate : 45.2 Mb/s
    Width : 3 840 pixels
    Height : 2 160 pixels
    Display aspect ratio : 16:9
    Frame rate mode : Constant
    Frame rate : 23.976 (24000/1001) FPS
    Color space : YUV
    Chroma subsampling : 4:2:0 (Type 2)
    Bit depth : 10 bits
    Bits/(Pixel*Frame) : 0.227
    Stream size : 40.6 GiB (84%)
    Writing library : ATEME Titan KFE 3.7.3 (4.7.3.1001)
    Default : Yes
    Forced : No
    Color range : Limited
    Color primaries : BT.2020
    Transfer characteristics : SMPTE ST 2084
    Matrix coefficients : BT.2020 non-constant
    Mastering display color primar : R: x=0.680000 y=0.320000, G: x=0.265000 y=0.690000, B: x=0.150000 y=0.060000, White point: x=0.312700 y=0.329000
    Mastering display luminance : min: 0.0000 cd/m2, max: 1100.0000 cd/m2

    Audio #1
    ID : 2
    Format : DTS
    Format/Info : Digital Theater Systems
    Mode : 16
    Format settings, Endianness : Big
    Codec ID : A_DTS
    Duration : 2 h 8 min
    Bit rate mode : Constant
    Bit rate : 768 kb/s
    Channel(s) : 6 channels
    Channel positions : Front: L C R, Side: L R, LFE
    Sampling rate : 48.0 kHz
    Frame rate : 93.750 FPS (512 SPF)
    Bit depth : 24 bits
    Compression mode : Lossy
    Stream size : 707 MiB (1%)
    Title : Русский DTS 768 kbps - Дубляж
    Language : Russian
    Default : Yes
    Forced : No

    Audio #2
    ID : 3
    Format : AC-3
    Format/Info : Audio Coding 3
    Format settings, Endianness : Big
    Codec ID : A_AC3
    Duration : 2 h 8 min
    Bit rate mode : Constant
    Bit rate : 640 kb/s
    Channel(s) : 6 channels
    Channel positions : Front: L C R, Side: L R, LFE
    Sampling rate : 48.0 kHz
    Frame rate : 31.250 FPS (1536 SPF)
    Bit depth : 16 bits
    Compression mode : Lossy
    Stream size : 589 MiB (1%)
    Title : Русский АСЗ 640 kbps - АП (Матвеев)
    Language : Russian
    Service kind : Complete Main
    Default : No
    Forced : No

    Audio #3
    ID : 4
    Format : AC-3
    Format/Info : Audio Coding 3
    Format settings, Endianness : Big
    Codec ID : A_AC3
    Duration : 2 h 8 min
    Bit rate mode : Constant
    Bit rate : 640 kb/s
    Channel(s) : 6 channels
    Channel positions : Front: L C R, Side: L R, LFE
    Sampling rate : 48.0 kHz
    Frame rate : 31.250 FPS (1536 SPF)
    Bit depth : 16 bits
    Compression mode : Lossy
    Stream size : 589 MiB (1%)
    Title : Русский АСЗ 640 kbps - АП (Сербин)
    Language : Russian
    Service kind : Complete Main
    Default : No
    Forced : No

    Audio #4
    ID : 5
    Format : AC-3
    Format/Info : Audio Coding 3
    Format settings, Endianness : Big
    Codec ID : A_AC3
    Duration : 2 h 8 min
    Bit rate mode : Constant
    Bit rate : 640 kb/s
    Channel(s) : 6 channels
    Channel positions : Front: L C R, Side: L R, LFE
    Sampling rate : 48.0 kHz
    Frame rate : 31.250 FPS (1536 SPF)
    Bit depth : 16 bits
    Compression mode : Lossy
    Stream size : 589 MiB (1%)
    Title : Русский АСЗ 640 kbps - АП (Володарский)
    Language : Russian
    Service kind : Complete Main
    Default : No
    Forced : No

    Audio #5
    ID : 6
    Format : AC-3
    Format/Info : Audio Coding 3
    Format settings, Endianness : Big
    Codec ID : A_AC3
    Duration : 2 h 8 min
    Bit rate mode : Constant
    Bit rate : 448 kb/s
    Channel(s) : 6 channels
    Channel positions : Front: L C R, Side: L R, LFE
    Sampling rate : 48.0 kHz
    Frame rate : 31.250 FPS (1536 SPF)
    Bit depth : 16 bits
    Compression mode : Lossy
    Stream size : 413 MiB (1%)
    Title : Украинский АСЗ 448 kbps - Дубляж
    Language : Ukrainian
    Service kind : Complete Main
    Default : No
    Forced : No

    Audio #6
    ID : 7
    Format : AC-3
    Format/Info : Audio Coding 3
    Format settings, Endianness : Big
    Codec ID : A_AC3
    Duration : 2 h 8 min
    Bit rate mode : Constant
    Bit rate : 640 kb/s
    Channel(s) : 6 channels
    Channel positions : Front: L C R, Side: L R, LFE
    Sampling rate : 48.0 kHz
    Frame rate : 31.250 FPS (1536 SPF)
    Bit depth : 16 bits
    Compression mode : Lossy
    Stream size : 589 MiB (1%)
    Title : Английский АСЗ 640 kbps - Оригинал
    Language : English
    Service kind : Complete Main
    Default : No
    Forced : No

    Audio #7
    ID : 8
    Format : DTS
    Format/Info : Digital Theater Systems
    Format profile : MA / ES Matrix / Core
    Mode : 16
    Format settings, Endianness : Big
    Codec ID : A_DTS
    Duration : 2 h 8 min
    Bit rate mode : Variable / Constant / Constant
    Bit rate : 4 935 kb/s / 1 509 kb/s / 1 509 kb/s
    Channel(s) : 8 channels / 7 channels / 6 channels
    Channel positions : Front: L C R, Side: L R, Back: L R, LFE / Front: L C R, Side: L R, Back: C, LFE / Front: L C R, Side: L R, LFE
    Sampling rate : 48.0 kHz
    Frame rate : 93.750 FPS (512 SPF)
    Bit depth : 24 bits
    Compression mode : Lossless / Lossy / Lossy
    Stream size : 4.44 GiB (9%)
    Title : Английский DTS-HD MA - Оригинал
    Language : English
    Default : No
    Forced : No

    Text #1
    ID : 9
    Format : UTF-8
    Codec ID : S_TEXT/UTF8
    Codec ID/Info : UTF-8 Plain Text
    Duration : 2 h 1 min
    Bit rate : 2 b/s
    Count of elements : 49
    Stream size : 1.92 KiB (0%)
    Title : Русские -forced
    Language : Russian
    Default : Yes
    Forced : No

    Text #2
    ID : 10
    Format : UTF-8
    Codec ID : S_TEXT/UTF8
    Codec ID/Info : UTF-8 Plain Text
    Duration : 2 h 7 min
    Bit rate : 94 b/s
    Count of elements : 1738
    Stream size : 87.9 KiB (0%)
    Title : Русские -full
    Language : Russian
    Default : No
    Forced : No

    Text #3
    ID : 11
    Format : UTF-8
    Codec ID : S_TEXT/UTF8
    Codec ID/Info : UTF-8 Plain Text
    Duration : 2 h 1 min
    Bit rate : 2 b/s
    Count of elements : 49
    Stream size : 2.07 KiB (0%)
    Title : Украинские -forced
    Language : Ukrainian
    Default : No
    Forced : No

    Text #4
    ID : 12
    Format : UTF-8
    Codec ID : S_TEXT/UTF8
    Codec ID/Info : UTF-8 Plain Text
    Duration : 2 h 1 min
    Bit rate : 103 b/s
    Count of elements : 1741
    Stream size : 92.1 KiB (0%)
    Title : Украинские -full
    Language : Ukrainian
    Default : No
    Forced : No

    Text #5
    ID : 13
    Format : UTF-8
    Codec ID : S_TEXT/UTF8
    Codec ID/Info : UTF-8 Plain Text
    Duration : 42 min 23 s
    Bit rate : 0 b/s
    Count of elements : 15
    Stream size : 268 Bytes (0%)
    Title : Английские -forced
    Language : English
    Default : No
    Forced : No

    Text #6
    ID : 14
    Format : UTF-8
    Codec ID : S_TEXT/UTF8
    Codec ID/Info : UTF-8 Plain Text
    Duration : 2 h 6 min
    Bit rate : 64 b/s
    Count of elements : 1897
    Stream size : 60.1 KiB (0%)
    Title : Английские -full
    Language : English
    Default : No
    Forced : No

    Text #7
    ID : 15
    Format : UTF-8
    Codec ID : S_TEXT/UTF8
    Codec ID/Info : UTF-8 Plain Text
    Duration : 2 h 7 min
    Bit rate : 69 b/s
    Count of elements : 2122
    Stream size : 65.5 KiB (0%)
    Title : Английские -SDH
    Language : English
    Default : No
    Forced : No

    Text #8
    ID : 16
    Format : UTF-8
    Codec ID : S_TEXT/UTF8
    Codec ID/Info : UTF-8 Plain Text
    Duration : 2 h 7 min
    Bit rate : 83 b/s
    Count of elements : 2122
    Stream size : 78.5 KiB (0%)
    Title : Английские -SDH Colored
    Language : English
    Default : No
    Forced : No

    Menu
    00:00:00.000 : en:00:00:00.000
    00:02:55.467 : en:00:02:55.467
    00:04:50.665 : en:00:04:50.665
    00:08:34.180 : en:00:08:34.180
    00:11:49.876 : en:00:11:49.876
    00:13:04.575 : en:00:13:04.575
    00:15:57.999 : en:00:15:57.999
    00:18:25.980 : en:00:18:25.980
    00:23:48.052 : en:00:23:48.052
    00:25:37.327 : en:00:25:37.327
    00:29:53.750 : en:00:29:53.750
    00:32:25.277 : en:00:32:25.277
    00:33:47.901 : en:00:33:47.901
    00:37:01.469 : en:00:37:01.469
    00:38:49.619 : en:00:38:49.619
    00:42:46.022 : en:00:42:46.022
    00:45:03.868 : en:00:45:03.868
    00:47:42.276 : en:00:47:42.276
    00:53:47.558 : en:00:53:47.558
    00:57:28.195 : en:00:57:28.195
    01:03:29.514 : en:01:03:29.514
    01:05:21.876 : en:01:05:21.876
    01:10:27.932 : en:01:10:27.932
    01:13:10.219 : en:01:13:10.219
    01:15:01.956 : en:01:15:01.956
    01:16:58.197 : en:01:16:58.197
    01:23:03.812 : en:01:23:03.812
    01:25:57.402 : en:01:25:57.402
    01:31:21.309 : en:01:31:21.309
    01:34:38.798 : en:01:34:38.798
    01:36:27.949 : en:01:36:27.949
    01:39:59.994 : en:01:39:59.994
    01:44:07.867 : en:01:44:07.867
    01:50:31.083 : en:01:50:31.083
    01:58:21.219 : en:01:58:21.219
    01:59:38.463 : en:01:59:38.463
    скриншот  скриншот  скриншот  скриншот  скриншот  скриншот  
piratbit.pw



Скачать Kingsman: Секретная служба через торрент http://i100.fastpic.ru/big/2017/1213/89/8b98d7e3dc77cffb7e134b0b90da3789.jpg Скачать фильм Kingsman: Секретная служба через торрент бесплантно в хорошем качестве Описание: Эггси — молодой парень, который прошел службу в морской пехоте и имеет очень высокий уровень интеллекта. Он мог бы добиться ... 10 10 1
Info! Золотая раздача, скачанное не засчитывается.
Торрент: Зарегистрирован [2017-12-13 13:11] · скачан: 40 раз
Статус: √ проверено
Размер: 48.44 GB
Как cкачать? Как скачать Kingsman: Секретная служба через торрент | qTorrent

28-11-2019 20:33  

Отключить всю рекламу на сайте

    Дорогой пользователь! Огромная просьба, поблагодарите релизера, оцените раздачу и оставьте свои комментарий, если Вы скачали Kingsman: Секретная служба через торрент бесплатно! Внесите свою лепту в развитие PiratBit!
    Комментировать посты могут только пользователи прошедшие не сложную регистрацию
    Показать сообщения:    

    Kingsman: Секретная служба через торрент
    Скачать бесплатно Kingsman: Секретная служба
    Kingsman: Секретная служба скачать торрент
    Kingsman: Секретная служба смотреть онлайн
    Cкачать фильм Kingsman: Секретная служба бесплатно
    Kingsman: Секретная служба скачать торрент в хорошем качестве
    Kingsman: Секретная служба смотреть онлайн бесплатно в хорошем качестве


    Вы не можете начинать темы
    Вы не можете отвечать на сообщения
    Вы не можете редактировать свои сообщения
    Вы не можете удалять свои сообщения
    Вы не можете голосовать в опросах
    Вы не можете прикреплять файлы к сообщениям
    Вы можете скачивать файлы