Ссылка на приватное зеркало нашего сайта всего за 1$. Внимание количество ограничено!!!

2 сезон

iTunes

iTunes

1

iTunes

iTunes

iTunes

WEBRip

iTunes

30
pack

Новость дня

ВАЖНО

!!Акция!!

Alien_RageХит недели

RePack

Horizon Zero Dawn

ИГРА 18+

pack

RePack

jed

!!Акция!!

Alien_Rage

RePack

fifa19

RePack

Assassins Creed: Odyssey

RePack

NEED FOR SPEED™ PAYBACK

4 сезон

9 сезон

Бесстыжие 9 сезон

Все сериалы

все сериалы на PB.wtf

RePack

FAR CRY 5
  

Гадкий Я 3 / Despicable Me 3 (Эрик Гуильон, Кайл Балда, Пьер Коффан) [2017, Мультфильм, фантастика, комедия, приключения, семейный, UHD WEBRip 2160p ] DUB [Лицензия] piratbit.pw

Гадкий Я 3 через торрент piratbit.pw

Размер: 14.17 GB | Добавлен: 2 года 9 мес. назад | Торрент скачан:117 раз
Скачать  

13-12-2017 06:26 Гадкий Я 3 Скачать торрент  

Гадкий Я 3 / Despicable Me 3Год выпуска: 2017
Страна: США
Жанр: Мультфильм, фантастика, боевик, комедия, приключения, семейный
Продолжительность: 01:29:40
Перевод: Дублированный | Лицензия
Субтитры: Русские (forced, full), английские (forced, full), французские, немецкие, голландские, польские.

Режиссер: Эрик Гуильон, Кайл Балда, Пьер Коффан

rating

В ролях:

Стив Карелл, Кристен Уиг, Трей Паркер, Миранда Косгров, Дэна Гайер, Пьер Коффан, Стив Кугэн, Джули Эндрюс, Дженни Слейт

Описание:

Грядет третье пришествие. Многодетный суперагент, роковая красотка и бессмертные миньоны на подходе. Готовьтесь. Они будут править миром.

Качество: UHD WEBRip 2160p
Формат: MKV
Видео кодек: HEVC
Аудио кодек: AC3/DTS

Видео: HEVC, 3840x1608, 23.976fps, 15.1 Mbit/s, 10bit, HDR, BT.2020
Аудио#1: 48 kHz, DTS, 5.1, 768 Kbps | Дублированный | RUS |
Аудио#2: 48 kHz, AC3, 5.1, 448 Kbps | Дублированный | RUS |
Аудио#3: 48 kHz, DTS-HD MA 7.1, 5 524 kb/s | 5.1 / 1 509 kb/s | Оригинал | ENG |
Аудио#4: 48 kHz, AC3, 5.1, 640 Kbps | Оригинал | ENG |
скриншот  скриншот  скриншот  скриншот  скриншот  скриншот  

General
Unique ID : 241119592524442846896035896654050934365 (0xB565F1C067D911118FC7CCDD7E14BE5D)
Format : Matroska
Format version : Version 4 / Version 2
File size : 14.2 GiB
Duration : 1 h 29 min
Overall bit rate : 22.6 Mb/s
Movie name : Despicable.Me.3.2017.2160p.BluRay.x265.10bit.HDR.DTS-X.7.1-SWTYBLZ
Encoded date : UTC 2017-12-12 23:14:10
Writing application : mkvmerge v18.0.0 ('Apricity') 64-bit
Writing library : libebml v1.3.5 + libmatroska v1.4.8
Cover : Yes
Attachments : cover.jpg

Video
ID : 1
Format : HEVC
Format/Info : High Efficiency Video Coding
Format profile : Main 10@L5.1@High
Codec ID : V_MPEGH/ISO/HEVC
Duration : 1 h 29 min
Bit rate : 15.1 Mb/s
Width : 3 840 pixels
Height : 1 608 pixels
Display aspect ratio : 2.40:1
Frame rate mode : Constant
Frame rate : 23.976 (24000/1001) FPS
Color space : YUV
Chroma subsampling : 4:2:0 (Type 2)
Bit depth : 10 bits
Bits/(Pixel*Frame) : 0.102
Stream size : 9.45 GiB (67%)
Language : English
Default : Yes
Forced : No
Color range : Limited
Color primaries : BT.2020
Transfer characteristics : SMPTE ST 2084
Matrix coefficients : BT.2020 non-constant
Mastering display color primaries : R: x=0.680000 y=0.320000, G: x=0.265000 y=0.690000, B: x=0.150000 y=0.060000, White point: x=0.312700 y=0.329000
Mastering display luminance : min: 0.0050 cd/m2, max: 1000.0000 cd/m2
Maximum Content Light Level : 1000 cd/m2
Maximum Frame-Average Light Level : 701 cd/m2

Audio #1
ID : 2
Format : DTS
Format/Info : Digital Theater Systems
Mode : 16
Format settings, Endianness : Big
Codec ID : A_DTS
Duration : 1 h 29 min
Bit rate mode : Constant
Bit rate : 768 kb/s
Channel(s) : 6 channels
Channel positions : Front: L C R, Side: L R, LFE
Sampling rate : 48.0 kHz
Frame rate : 93.750 FPS (512 spf)
Bit depth : 24 bits
Compression mode : Lossy
Stream size : 493 MiB (3%)
Title : Rus DTS 768kbs
Language : Russian
Default : Yes
Forced : No

Audio #2
ID : 3
Format : AC-3
Format/Info : Audio Coding 3
Format settings, Endianness : Big
Codec ID : A_AC3
Duration : 1 h 29 min
Bit rate mode : Constant
Bit rate : 448 kb/s
Channel(s) : 6 channels
Channel positions : Front: L C R, Side: L R, LFE
Sampling rate : 48.0 kHz
Frame rate : 31.250 FPS (1536 spf)
Bit depth : 16 bits
Compression mode : Lossy
Stream size : 287 MiB (2%)
Title : Rus AC3 448kbs
Language : Russian
Service kind : Complete Main
Default : No
Forced : No

Audio #3
ID : 4
Format : DTS
Format/Info : Digital Theater Systems
Format profile : X / MA / Core
Mode : 16
Format settings, Endianness : Big
Codec ID : A_DTS
Duration : 1 h 29 min
Bit rate mode : Variable / Variable / Constant
Bit rate : 5 524 kb/s / 5 524 kb/s / 1 509 kb/s
Channel(s) : Object Based / 8 channels / 6 channels
Channel positions : Object Based / Front: L C R, Side: L R, Back: L R, LFE / Front: L C R, Side: L R, LFE
Sampling rate : / 48.0 kHz / 48.0 kHz
Frame rate : 93.750 FPS (512 spf)
Bit depth : / 24 bits / 24 bits
Compression mode : / Lossless / Lossy
Stream size : 3.46 GiB (24%)
Title : Eng DTS-HD
Language : English
Default : No
Forced : No

Audio #4
ID : 5
Format : AC-3
Format/Info : Audio Coding 3
Format settings, Endianness : Big
Codec ID : A_AC3
Duration : 1 h 29 min
Bit rate mode : Constant
Bit rate : 640 kb/s
Channel(s) : 6 channels
Channel positions : Front: L C R, Side: L R, LFE
Sampling rate : 48.0 kHz
Frame rate : 31.250 FPS (1536 spf)
Bit depth : 16 bits
Compression mode : Lossy
Stream size : 410 MiB (3%)
Title : Eng AC3
Language : English
Service kind : Complete Main
Default : No
Forced : No

Text #1
ID : 6
Format : UTF-8
Codec ID : S_TEXT/UTF8
Codec ID/Info : UTF-8 Plain Text
Duration : 1 h 20 min
Bit rate : 86 b/s
Count of elements : 1083
Stream size : 51.1 KiB (0%)
Title : Rus Sub
Language : Russian
Default : No
Forced : No

Text #2
ID : 7
Format : UTF-8
Codec ID : S_TEXT/UTF8
Codec ID/Info : UTF-8 Plain Text
Duration : 1 h 10 min
Bit rate : 1 b/s
Count of elements : 29
Stream size : 962 Bytes (0%)
Title : Rus Forced Sub
Language : Russian
Default : No
Forced : Yes

Text #3
ID : 8
Format : UTF-8
Codec ID : S_TEXT/UTF8
Codec ID/Info : UTF-8 Plain Text
Duration : 1 h 21 min
Bit rate : 50 b/s
Count of elements : 1152
Stream size : 30.2 KiB (0%)
Title : English-SRT
Language : English
Default : No
Forced : No

Text #4
ID : 9
Format : PGS
Codec ID : S_HDMV/PGS
Codec ID/Info : Picture based subtitle format used on BDs/HD-DVDs
Duration : 1 h 21 min
Bit rate : 46.3 kb/s
Count of elements : 3054
Stream size : 27.0 MiB (0%)
Title : English-PGS
Language : English
Default : No
Forced : No

Text #5
ID : 10
Format : PGS
Codec ID : S_HDMV/PGS
Codec ID/Info : Picture based subtitle format used on BDs/HD-DVDs
Duration : 1 h 28 min
Bit rate : 25.7 kb/s
Count of elements : 2164
Stream size : 16.3 MiB (0%)
Title : French-PGS
Language : French
Default : No
Forced : No

Text #6
ID : 11
Format : PGS
Codec ID : S_HDMV/PGS
Codec ID/Info : Picture based subtitle format used on BDs/HD-DVDs
Duration : 1 h 28 min
Bit rate : 30.7 kb/s
Count of elements : 1814
Stream size : 19.5 MiB (0%)
Title : German-PGS
Language : German
Default : No
Forced : No

Text #7
ID : 12
Format : PGS
Codec ID : S_HDMV/PGS
Codec ID/Info : Picture based subtitle format used on BDs/HD-DVDs
Duration : 1 h 28 min
Bit rate : 25.3 kb/s
Count of elements : 1502
Stream size : 16.1 MiB (0%)
Title : Dutch-PGS
Language : Dutch
Default : No
Forced : No

Text #8
ID : 13
Format : PGS
Codec ID : S_HDMV/PGS
Codec ID/Info : Picture based subtitle format used on BDs/HD-DVDs
Duration : 1 h 28 min
Bit rate : 27.1 kb/s
Count of elements : 2144
Stream size : 17.2 MiB (0%)
Title : Polish-PGS
Language : Polish
Default : No
Forced : No

Menu
00:00:00.000 : en:Chapter 1
00:03:06.102 : en:Chapter 2
00:07:57.977 : en:Chapter 3
00:11:12.838 : en:Chapter 4
00:16:15.766 : en:Chapter 5
00:20:07.497 : en:Chapter 6
00:24:07.988 : en:Chapter 7
00:28:57.068 : en:Chapter 8
00:32:55.348 : en:Chapter 9
00:39:01.839 : en:Chapter 10
00:42:44.186 : en:Chapter 11
00:46:47.179 : en:Chapter 12
00:50:55.635 : en:Chapter 13
00:56:12.077 : en:Chapter 14
01:00:02.265 : en:Chapter 15
01:05:41.228 : en:Chapter 16
01:10:14.543 : en:Chapter 17
01:14:33.760 : en:Chapter 18
01:19:29.723 : en:Chapter 19
01:21:56.995 : en:Chapter 20

piratbit.pw



Скачать Гадкий Я 3 через торрент http://s018.radikal.ru/i513/1712/7d/0bc12a27739f.jpg Скачать фильм Гадкий Я 3 через торрент бесплантно в хорошем качестве Описание: Грядет третье пришествие. Многодетный суперагент, роковая красотка и бессмертные миньоны на подходе. Готовьтесь. Они будут ... 10 10 7
Info! Золотая раздача, скачанное не засчитывается.
Торрент: Зарегистрирован [2017-12-13 06:26] · скачан: 117 раз
Статус: √ проверено
Размер: 14.17 GB
Как cкачать? Как скачать Гадкий Я 3 через торрент | qTorrent

% Раздел Тема Автор DL S | L
Зарубежные Мультфильмы (BDRip 1080p, 720p, Blu-ray, BD-Remux) [ 3.38 GB ] Гадкий Я 3 / Despicable Me 3 [2017 мультфильм BDRip 1080p HEVC ] Мичман37 Скачать
5 | 0
Зарубежные Мультфильмы (BDRip 1080p, 720p, Blu-ray, BD-Remux) [ 36.04 GB ] Гадкий Я 3 / Despicable Me 3 [2017 Мультфильм Blu-ray EUR 1080p] [2D 3D] DUB [] bober100 Скачать
1 | 0
Иностранные мультфильмы [ 2.1 GB ] Гадкий я 3 / Despicable Me 3 [2017 мультфильм BDRip-AVC] sokol_ok Скачать
3 | 0
3D Мультфильмы [ 11.26 GB ] Гадкий я 3 в 3Д / Despicable Me 3 3D [2017 Мультфильм Приключен BDrip 1080p] OverUnder / Вертикальная стереопара serega768 Скачать
1 | 0
Иностранные мультфильмы [ 1.46 GB ] Гадкий Я 3 / Despicable Me 3 [2017 Мультфильм HDRip] DUB [] coc900 Скачать
1 | 0
Иностранные мультфильмы [ 762 MB ] Гадкий я 3 / Despicable Me 3 [2017 мультфильм BDRip-AVC] sokol_ok Скачать
2 | 0
Иностранные мультфильмы [ 1.44 GB ] Гадкий я 3 / Despicable Me 3 [2017 мультфильм BDRip-AVC] sokol_ok Скачать
1 | 0

28-11-2019 20:33  

Отключить всю рекламу на сайте

13-12-2017 06:57 Гадкий Я 3 Скачать торрент  

Смысл, если есть HDR Blu-ray.piratbit.pw



13-12-2017 07:48 Гадкий Я 3 Скачать торрент  

по Скринам , что-то тусклое все (piratbit.pw



15-02-2019 05:17 Гадкий Я 3 Скачать торрент  

BoomGoTinko писал(а):

по Скринам , что-то тусклое все (

Мерзко серое всё! Скачал, а смотреть не хочется...piratbit.pw



    Дорогой пользователь! Огромная просьба, поблагодарите релизера, оцените раздачу и оставьте свои комментарий, если Вы скачали Гадкий Я 3 через торрент бесплатно! Внесите свою лепту в развитие PiratBit!
    Комментировать посты могут только пользователи прошедшие не сложную регистрацию
    Показать сообщения:    

    Гадкий Я 3 через торрент
    Скачать бесплатно Гадкий Я 3
    Гадкий Я 3 скачать торрент
    Гадкий Я 3 смотреть онлайн
    Cкачать фильм Гадкий Я 3 бесплатно
    Гадкий Я 3 скачать торрент в хорошем качестве
    Гадкий Я 3 смотреть онлайн бесплатно в хорошем качестве


    Вы не можете начинать темы
    Вы не можете отвечать на сообщения
    Вы не можете редактировать свои сообщения
    Вы не можете удалять свои сообщения
    Вы не можете голосовать в опросах
    Вы не можете прикреплять файлы к сообщениям
    Вы можете скачивать файлы