Ссылка на приватное зеркало всего за 1$. Внимание количество ограничено!!!

iTunes

iTunes

iTunes

1

iTunes

iTunes

iTunes

iTunes

iTunes

30
pack

Новость дня

ВАЖНО

!!Акция!!

Alien_RageХит недели

RePack

Resident Evil 21

ИГРА 18+

pack

RePack

jed

!!Акция!!

Alien_Rage

RePack

fifa19

RePack

Assassins Creed: Odyssey

RePack

NEED FOR SPEED™ PAYBACK

4 сезон

9 сезон

Бесстыжие 9 сезон

Все сериалы

все сериалы на PB.wtf

RePack

FAR CRY 5
  

Взрывная блондинка / Atomic Blonde (Дэвид Литч) [2017, боевик, триллер, детектив, UHD BDRemux 2160p] DUB [iTunes] +MVO [Paradox&Omskbird] piratbit.pw

Взрывная блондинка через торрент piratbit.pw

Размер: 41.32 GB | Добавлен: 2 года 3 мес. назад | Торрент скачан:80 раз
Скачать  

12-12-2017 17:23 Взрывная блондинка Скачать торрент  

Взрывная блондинка / Atomic BlondeГод выпуска: 2017
Страна: Германия, Швеция, США
Жанр: боевик, триллер, детектив
Продолжительность: 01:56:37
Перевод:

#1: Дублированный | [iTunes]
#2: Любительский многоголосый | [Paradox&Omskbird]

Субтитры: Русские (forced), английские

Режиссер: Дэвид Литч

rating

В ролях:

Шарлиз Терон, Джеймс МакЭвой, Эдди Марсан, Джон Гудман, Тоби Джонс, Джеймс Фолкнер, Роланд Мюллер, София Бутелла, Билл Скарсгард, Сэм Харгрейв, ...

Описание:

Агент Лоррейн Бротон, бриллиант в короне Секретной разведывательной службы Ее Величества, не просто мастер шпионажа: она бомбически сексуальна, взрывоопасна и использует весь арсенал своих уникальных умений во время невыполнимых миссий. В неспокойном Берлине, куда ее направляют с заданием вернуть бесценное досье, она вынуждена объединиться с агентом под прикрытием Дэвидом Персивалем. Вместе им предстоит проложить путь через тернии смертельных шпионских игр…


Качество: UHD BDRemux 2160p
Формат: MKV
Видео кодек: HEVC
Аудио кодек: AC3/DTS-HD MA

Видео: MPEG-H HEVC HDR Video, 3840x2160, 46.3 Mbit/s, 23.976 fps
Аудио#1: 48 kHz, AC3, 5.1, 384 Kbps | Дублированный | RUS |
Аудио#2: 48 kHz, AC3, 2.0, 192 Kbps | Paradox&Omskbird | RUS |
Аудио#3: 48 kHz, DTS-HD MA, 7.1, 4671 Kbps | Оригинал | ENG |

Релиз от:
скриншот  скриншот  скриншот  скриншот  скриншот  

скриншот  скриншот  скриншот  скриншот  скриншот  

General
Unique ID : 221249445676705797590703227383542613384 (0xA67317DFF05352828739D99E79FA8588)
Complete name : G:VideoSSDAtomic.Blonde.2017.BDREMUX.2160p.4K.UltraHD.HEVC.HDR.ExKInoRay.mkv
Format : Matroska
Format version : Version 4 / Version 2
File size : 41.3 GiB
Duration : 1 h 54 min
Overall bit rate : 51.6 Mb/s
Movie name : Atomic Blonde 2017 from ExKinoRay
Encoded date : UTC 2017-12-12 16:14:53
Writing application : mkvmerge v18.0.0 ('Apricity') 64-bit
Writing library : libebml v1.3.5 + libmatroska v1.4.8

Video
ID : 1
Format : HEVC
Format/Info : High Efficiency Video Coding
Format profile : Main 10@L5.1@High
Codec ID : V_MPEGH/ISO/HEVC
Duration : 1 h 54 min
Bit rate : 46.3 Mb/s
Width : 3 840 pixels
Height : 2 160 pixels
Display aspect ratio : 16:9
Frame rate mode : Constant
Frame rate : 23.976 (24000/1001) FPS
Color space : YUV
Chroma subsampling : 4:2:0 (Type 2)
Bit depth : 10 bits
Bits/(Pixel*Frame) : 0.233
Stream size : 37.1 GiB (90%)
Language : English
Default : Yes
Forced : No
Color range : Limited
Color primaries : BT.2020
Transfer characteristics : PQ
Matrix coefficients : BT.2020 non-constant
Mastering display color pri : R: x=0.680000 y=0.320000, G: x=0.265000 y=0.690000, B: x=0.150000 y=0.060000, White point: x=0.312700 y=0.329000
Mastering display luminance : min: 0.0050 cd/m2, max: 1000.0000 cd/m2
Maximum Content Light Level : 600 cd/m2
Maximum Frame-Average Light : 487 cd/m2

Audio #1
ID : 2
Format : AC-3
Format/Info : Audio Coding 3
Format settings, Endianness : Big
Codec ID : A_AC3
Duration : 1 h 54 min
Bit rate mode : Constant
Bit rate : 384 kb/s
Channel(s) : 6 channels
Channel positions : Front: L C R, Side: L R, LFE
Sampling rate : 48.0 kHz
Frame rate : 31.250 FPS (1536 SPF)
Bit depth : 16 bits
Compression mode : Lossy
Stream size : 315 MiB (1%)
Title : Dub
Language : Russian
Service kind : Complete Main
Default : Yes
Forced : No

Audio #2
ID : 3
Format : AC-3
Format/Info : Audio Coding 3
Format settings, Endianness : Big
Codec ID : A_AC3
Duration : 1 h 54 min
Bit rate mode : Constant
Bit rate : 192 kb/s
Channel(s) : 2 channels
Channel positions : Front: L R
Sampling rate : 48.0 kHz
Frame rate : 31.250 FPS (1536 SPF)
Bit depth : 16 bits
Compression mode : Lossy
Stream size : 157 MiB (0%)
Title : MVO
Language : Russian
Service kind : Complete Main
Default : No
Forced : No

Audio #3
ID : 4
Format : DTS
Format/Info : Digital Theater Systems
Format profile : X / MA / Core
Mode : 16
Format settings, Endianness : Big
Codec ID : A_DTS
Duration : 1 h 54 min
Bit rate mode : Variable / Variable / Constant
Bit rate : 4 671 kb/s / 4 671 kb/s / 1 509 kb/s
Channel(s) : Object Based / 8 channels / 6 channels
Channel positions : Object Based / Front: L C R, Side: L R, Back: L R, LFE / Front: L C R, Side: L R, LFE
Sampling rate : / 48.0 kHz / 48.0 kHz
Frame rate : 93.750 FPS (512 SPF)
Bit depth : / 24 bits / 24 bits
Compression mode : / Lossless / Lossy
Stream size : 3.74 GiB (9%)
Title : Original
Language : English
Default : No
Forced : No

Text #1
ID : 5
Format : UTF-8
Codec ID : S_TEXT/UTF8
Codec ID/Info : UTF-8 Plain Text
Duration : 1 h 47 min
Bit rate : 2 b/s
Count of elements : 42
Stream size : 1.64 KiB (0%)
Title : Forced
Language : Russian
Default : Yes
Forced : Yes

Text #2
ID : 6
Format : UTF-8
Codec ID : S_TEXT/UTF8
Codec ID/Info : UTF-8 Plain Text
Duration : 1 h 47 min
Bit rate : 64 b/s
Count of elements : 1101
Stream size : 51.2 KiB (0%)
Title : Full
Language : Russian
Default : No
Forced : No

Text #3
ID : 7
Format : UTF-8
Codec ID : S_TEXT/UTF8
Codec ID/Info : UTF-8 Plain Text
Duration : 1 h 47 min
Bit rate : 37 b/s
Count of elements : 974
Stream size : 29.3 KiB (0%)
Language : English
Default : No
Forced : No

Menu
00:00:00.000 : en:00:00:00.000
00:06:47.991 : en:00:06:47.991
00:11:03.162 : en:00:11:03.162
00:18:17.221 : en:00:18:17.221
00:24:15.579 : en:00:24:15.579
00:27:47.165 : en:00:27:47.165
00:32:50.010 : en:00:32:50.010
00:36:20.095 : en:00:36:20.095
00:40:46.152 : en:00:40:46.152
00:47:55.664 : en:00:47:55.664
00:53:13.482 : en:00:53:13.482
00:59:54.090 : en:00:59:54.090
01:03:32.767 : en:01:03:32.767
01:08:03.788 : en:01:08:03.788
01:10:52.415 : en:01:10:52.415
01:18:27.453 : en:01:18:27.453
01:24:28.272 : en:01:24:28.272
01:32:44.267 : en:01:32:44.267
01:42:06.245 : en:01:42:06.245
01:48:21.078 : en:01:48:21.078

piratbit.pw



Скачать Взрывная блондинка через торрент http://s46.radikal.ru/i111/1712/2a/f145c0fdd67d.jpg Скачать фильм Взрывная блондинка через торрент бесплантно в хорошем качестве Описание: Агент Лоррейн Бротон, бриллиант в короне Секретной разведывательной службы Ее Величества, не просто мастер шпионажа: она ... 7.4 10 7
Info! Золотая раздача, скачанное не засчитывается.
Торрент: Зарегистрирован [2017-12-12 17:23] · скачан: 80 раз
Статус: √ проверено
Размер: 41.32 GB
Как cкачать? Как скачать Взрывная блондинка через торрент | qTorrent

% Раздел Тема Автор DL S | L
Ultra HD (UHD: 2K, 4K, 8K) — видео сверхвысокой чёткости [ 43.86 GB ] Взрывная блондинка / Atomic Blonde [2017 UHD BDRemux 2160p] [Dolby Vision TV] bober100 Скачать
1 | 0
Фильмы 2017 [DVDrip, WEB-DLRip, HDrip] (DUB, MVO) [ 2.11 GB ] Взрывная блондинка / Atomic Blonde [2017 WEB-DLRip-AVC] MVO - ExKinoRay Enigma2010 Скачать
4 | 0
Ultra HD (UHD: 2K, 4K, 8K) — видео сверхвысокой чёткости [ 50.03 GB ] Взрывная блондинка / Atomic Blonde [2017 UHD BDRemux 2160p] [Dolby Vision] sheker187 Скачать
1 | 0
Фильмы с авторской озвучкой [ 2.06 GB ] Взрывная блондинка / Убойная блондинка / Atomic Blonde [2017 BDRip] [AVO] killermax2013 Скачать
1 | 0
Фильмы (WEB-DL 720p, 1080p) [ 7.1 GB ] Взрывная блондинка / Atomic Blonde [2017 WEB-DL 1080p] bober100 Скачать
3 | 0
Фильмы с авторской озвучкой [ 2.3 GB ] Взрывная блондинка / Atomic Blonde [2017 BDRip-AVC] AVO [Есарев] - ExKinoRay Enigma2010 Скачать
1 | 0
Фильмы [HD 720p, 1080p] (Хороший звук DUB, MVO) [ 13.54 GB ] Взрывная блондинка / Atomic Blonde [2017 BDRip 1080p] bober100 Скачать
1 | 0

28-11-2019 20:33  

Отключить всю рекламу на сайте

    Дорогой пользователь! Огромная просьба, поблагодарите релизера, оцените раздачу и оставьте свои комментарий, если Вы скачали Взрывная блондинка через торрент бесплатно! Внесите свою лепту в развитие PiratBit!
    Комментировать посты могут только пользователи прошедшие не сложную регистрацию
    Показать сообщения:    

    Взрывная блондинка через торрент
    Скачать бесплатно Взрывная блондинка
    Взрывная блондинка скачать торрент
    Взрывная блондинка смотреть онлайн
    Cкачать фильм Взрывная блондинка бесплатно
    Взрывная блондинка скачать торрент в хорошем качестве
    Взрывная блондинка смотреть онлайн бесплатно в хорошем качестве


    Вы не можете начинать темы
    Вы не можете отвечать на сообщения
    Вы не можете редактировать свои сообщения
    Вы не можете удалять свои сообщения
    Вы не можете голосовать в опросах
    Вы не можете прикреплять файлы к сообщениям
    Вы можете скачивать файлы