Ссылка на приватное зеркало всего за 1$. Внимание количество ограничено!!!

iTunes

iTunes

iTunes

1

iTunes

iTunes

iTunes

iTunes

iTunes

30
pack

Новость дня

ВАЖНО

!!Акция!!

Alien_RageХит недели

RePack

Resident Evil 21

ИГРА 18+

pack

RePack

jed

!!Акция!!

Alien_Rage

RePack

fifa19

RePack

Assassins Creed: Odyssey

RePack

NEED FOR SPEED™ PAYBACK

4 сезон

9 сезон

Бесстыжие 9 сезон

Все сериалы

все сериалы на PB.wtf

RePack

FAR CRY 5
  

Планета обезьян: Война / War for the Planet of the Apes (Мэтт Ривз) [2017, Фантастика, боевик, драма, приключения, UHD BDRemux 2160p] [Лицензия] DUB+AVO [Д.Есарев] piratbit.pw

Планета обезьян: Война через торрент piratbit.pw

Раздают: 1 [ 0 KB/s ]
Размер: 43.6 GB | Добавлен: 2 года 3 мес. назад | Торрент скачан:185 раз
Скачать  

12-12-2017 04:45 Планета обезьян: Война Скачать торрент  

Планета обезьян: Война / War for the Planet of the Apes
Год выпуска: 2017
Страна: США
Жанр: Фантастика, боевик, драма, приключения
Продолжительность: 02:21:10
Перевод:

#1: Дублированный | Лицензия
#2: Авторский | Дмитрий Есарев

Субтитры: Русские (forced, full), английские
Реклама: Отсутствует

Режиссер: Мэтт Ривз

rating

В ролях:

Джуди Грир, Вуди Харрельсон, Энди Серкис, Стив Зан, Тай Олссон, Терри Нотари, Сара Каннинг, Макс Ллойд-Джонс, Гэбриел Чаварриа, Алекс Паунович

Описание:

Война между людьми и обезьянами неизбежна, хотя обеим сторонам есть что терять. Кто же нападет первым?

Качество: UHD BDRemux 2160p
Формат: MKV
Видео кодек: HEVC
Аудио кодек: DTS

Видео: MPEG-H HEVC HDR Video, 3840x2160, 35.4 Mbit/s, 23.976 fps
Аудио#1: 48 kHz, DTS, 5.1, 768 Kbps | Лицензия | RUS |
Аудио#2: 48 kHz, DTS-HD MA, 5.1, 3550 Kbps | Авторский | RUS |
Аудио#3: 48 kHz, DTS-HD MA, 7.1, 4780 Kbps | Оригинал | ENG |

Релиз от:
скриншот  скриншот  скриншот  скриншот  скриншот  

General
Unique ID : 191193736584250210030061565428865097567 (0x8FD69301D4BE4E4E9B96AABF24EADF5F)
Complete name : G:VideoSSDWar.for.the.Planet.of.the.Apes.2017.BDREMUX.2160p.4K.UltraHD.HEVC.HDR.ExKinoRay.mkv
Format : Matroska
Format version : Version 4 / Version 2
File size : 43.6 GiB
Duration : 2 h 20 min
Overall bit rate : 44.5 Mb/s
Movie name : War for the Planet of the Apes 2017 from ExKinoRay
Encoded date : UTC 2017-12-12 00:17:44
Writing application : mkvmerge v18.0.0 ('Apricity') 64-bit
Writing library : libebml v1.3.5 + libmatroska v1.4.8

Video
ID : 1
Format : HEVC
Format/Info : High Efficiency Video Coding
Format profile : Main 10@L5.1@High
Codec ID : V_MPEGH/ISO/HEVC
Duration : 2 h 20 min
Bit rate : 35.4 Mb/s
Width : 3 840 pixels
Height : 2 160 pixels
Display aspect ratio : 16:9
Frame rate mode : Constant
Frame rate : 23.976 (24000/1001) FPS
Color space : YUV
Chroma subsampling : 4:2:0 (Type 2)
Bit depth : 10 bits
Bits/(Pixel*Frame) : 0.178
Stream size : 34.7 GiB (80%)
Writing library : ATEME Titan File 3.8.3 (4.8.3.0)
Language : English
Default : Yes
Forced : No
Color range : Limited
Color primaries : BT.2020
Transfer characteristics : PQ
Matrix coefficients : BT.2020 non-constant
Mastering display color pri : R: x=0.680000 y=0.320000, G: x=0.265000 y=0.690000, B: x=0.150000 y=0.060000, White point: x=0.312700 y=0.329000
Mastering display luminance : min: 0.0050 cd/m2, max: 1000.0000 cd/m2

Audio #1
ID : 2
Format : DTS
Format/Info : Digital Theater Systems
Mode : 16
Format settings, Endianness : Big
Codec ID : A_DTS
Duration : 2 h 20 min
Bit rate mode : Constant
Bit rate : 768 kb/s
Channel(s) : 6 channels
Channel positions : Front: L C R, Side: L R, LFE
Sampling rate : 48.0 kHz
Frame rate : 93.750 FPS (512 SPF)
Bit depth : 24 bits
Compression mode : Lossy
Stream size : 770 MiB (2%)
Title : Dub [License]
Language : Russian
Default : Yes
Forced : No

Audio #2
ID : 3
Format : DTS
Format/Info : Digital Theater Systems
Format profile : MA / Core
Mode : 16
Format settings, Endianness : Big
Codec ID : A_DTS
Duration : 2 h 20 min
Bit rate mode : Variable / Constant
Bit rate : 3 550 kb/s / 1 509 kb/s
Channel(s) : 6 channels
Channel positions : Front: L C R, Side: L R, LFE
Sampling rate : 48.0 kHz
Frame rate : 93.750 FPS (512 SPF)
Bit depth : 24 bits
Compression mode : Lossless / Lossy
Stream size : 3.48 GiB (8%)
Title : AVO
Language : Russian
Default : No
Forced : No

Audio #3
ID : 4
Format : DTS
Format/Info : Digital Theater Systems
Format profile : MA / ES Matrix / Core
Mode : 16
Format settings, Endianness : Big
Codec ID : A_DTS
Duration : 2 h 20 min
Bit rate mode : Variable / Constant / Constant
Bit rate : 4 780 kb/s / 1 509 kb/s / 1 509 kb/s
Channel(s) : 8 channels / 7 channels / 6 channels
Channel positions : Front: L C R, Side: L R, Back: L R, LFE / Front: L C R, Side: L R, Back: C, LFE / Front: L C R, Side: L R, LFE
Sampling rate : 48.0 kHz
Frame rate : 93.750 FPS (512 SPF)
Bit depth : 24 bits
Compression mode : Lossless / Lossy / Lossy
Stream size : 4.68 GiB (11%)
Title : Original
Language : English
Default : No
Forced : No

Text #1
ID : 5
Format : UTF-8
Codec ID : S_TEXT/UTF8
Codec ID/Info : UTF-8 Plain Text
Duration : 2 h 18 min
Bit rate : 8 b/s
Count of elements : 220
Stream size : 8.96 KiB (0%)
Title : Forced
Language : Russian
Default : Yes
Forced : No

Text #2
ID : 6
Format : UTF-8
Codec ID : S_TEXT/UTF8
Codec ID/Info : UTF-8 Plain Text
Duration : 2 h 18 min
Bit rate : 28 b/s
Count of elements : 797
Stream size : 28.5 KiB (0%)
Title : Full
Language : Russian
Default : No
Forced : No

Text #3
ID : 7
Format : UTF-8
Codec ID : S_TEXT/UTF8
Codec ID/Info : UTF-8 Plain Text
Duration : 2 h 8 min
Bit rate : 16 b/s
Count of elements : 748
Stream size : 15.5 KiB (0%)
Title : Full
Language : English
Default : No
Forced : No

Menu
00:00:00.000 : en:00:00:00.000
00:05:05.889 : en:00:05:05.889
00:09:06.713 : en:00:09:06.713
00:12:14.108 : en:00:12:14.108
00:18:21.017 : en:00:18:21.017
00:25:04.503 : en:00:25:04.503
00:30:17.399 : en:00:30:17.399
00:34:13.093 : en:00:34:13.093
00:37:46.347 : en:00:37:46.347
00:42:54.447 : en:00:42:54.447
00:49:31.802 : en:00:49:31.802
00:54:14.626 : en:00:54:14.626
00:58:49.818 : en:00:58:49.818
01:05:24.129 : en:01:05:24.129
01:10:18.381 : en:01:10:18.381
01:14:53.823 : en:01:14:53.823
01:18:59.193 : en:01:18:59.193
01:25:35.672 : en:01:25:35.672
01:29:37.372 : en:01:29:37.372
01:34:22.824 : en:01:34:22.824
01:39:27.712 : en:01:39:27.712
01:43:48.222 : en:01:43:48.222
01:48:45.394 : en:01:48:45.394
01:55:20.580 : en:01:55:20.580
01:58:04.703 : en:01:58:04.703
02:02:33.930 : en:02:02:33.930
02:05:54.797 : en:02:05:54.797
02:12:51.213 : en:02:12:51.213

piratbit.pw



Скачать Планета обезьян: Война через торрент http://s018.radikal.ru/i500/1712/a5/7e8707ac7686.jpg Скачать фильм Планета обезьян: Война через торрент бесплантно в хорошем качестве Описание: Война между людьми и обезьянами неизбежна, хотя обеим сторонам есть что терять. Кто же нападет ... 10 10 8
Торрент: Зарегистрирован [2017-12-12 04:45] · скачан: 185 раз
Статус: √ проверено
Размер: 43.6 GB
Как cкачать? Как скачать Планета обезьян: Война через торрент | qTorrent

% Раздел Тема Автор DL S | L
Ultra HD (UHD: 2K, 4K, 8K) — видео сверхвысокой чёткости [ 50.8 GB ] Планета обезьян: Война / War for the Planet of the Apes [2017 UHD Blu-ray 2160p] DUB [] sheker187 Скачать
1 | 0
Ultra HD (UHD: 2K, 4K, 8K) — видео сверхвысокой чёткости [ 60.13 GB ] Планета обезьян: Война / War for the Planet of the Apes [2017 UHD BDRemux 2160p] DUB + 3xAVO sheker187 Скачать
1 | 0
Фильмы (Blu-ray, BD-Remux, HDDVD) [ 45.87 GB ] Планета обезьян: Война / War for the Planet of the Apes [2017 BDRemux 1080p] DUB + 3xAVO sheker187 Скачать
1 | 0
Фильмы 2017 [DVDrip, WEB-DLRip, HDrip] (DUB, MVO) [ 2.18 GB ] Планета обезьян: Война / War for the Planet of the Apes [2017 BDRip] - [] Twi7ter Скачать
3 | 0
Фильмы с авторской озвучкой [ 1.45 GB ] Планета обезьян: Война / War for the Planet of the Apes [2017 HDRip-AVC] [AVO] killermax2013 Скачать
1 | 0
Фильмы (HD 720p, 1080p) (48-60 fps) [ 23.64 GB ] Планета обезьян: Война / War for the Planet of the Apes [2017 BDRip 1080p 60fps Dub VO Original] Tiberiumsun69 Скачать
2 | 0
Фильмы 2017 [DVDrip, WEB-DLRip, HDrip] (DUB, MVO) [ 2.18 GB ] Планета обезьян: Война / War for the Planet of the Apes [2017 HDRip] killermax2013 Скачать
1 | 0

28-11-2019 20:33  

Отключить всю рекламу на сайте

23-07-2018 18:52 Планета обезьян: Война Скачать торрент  

"поновей" 4К не видноpiratbit.pw



    Дорогой пользователь! Огромная просьба, поблагодарите релизера, оцените раздачу и оставьте свои комментарий, если Вы скачали Планета обезьян: Война через торрент бесплатно! Внесите свою лепту в развитие PiratBit!
    Комментировать посты могут только пользователи прошедшие не сложную регистрацию
    Показать сообщения:    

    Планета обезьян: Война через торрент
    Скачать бесплатно Планета обезьян: Война
    Планета обезьян: Война скачать торрент
    Планета обезьян: Война смотреть онлайн
    Cкачать фильм Планета обезьян: Война бесплатно
    Планета обезьян: Война скачать торрент в хорошем качестве
    Планета обезьян: Война смотреть онлайн бесплатно в хорошем качестве


    Вы не можете начинать темы
    Вы не можете отвечать на сообщения
    Вы не можете редактировать свои сообщения
    Вы не можете удалять свои сообщения
    Вы не можете голосовать в опросах
    Вы не можете прикреплять файлы к сообщениям
    Вы можете скачивать файлы