Marvel's Avengers Deluxe Edition (супер цена) 159р. Внимание количество ограничено!!!

2 сезон

iTunes

iTunes

1

iTunes

iTunes

iTunes

WEBRip

iTunes

30
pack

Новость дня

ВАЖНО

!!Акция!!

Alien_RageХит недели

RePack

Horizon Zero Dawn

ИГРА 18+

pack

RePack

jed

!!Акция!!

Alien_Rage

RePack

fifa19

RePack

Assassins Creed: Odyssey

RePack

NEED FOR SPEED™ PAYBACK

4 сезон

9 сезон

Бесстыжие 9 сезон

Все сериалы

все сериалы на PB.wtf

RePack

FAR CRY 5
  

Как Витька Чеснок вез Леху Штыря в дом инвалидов (Александр Хант) [2017 г., драма, криминал, WEB-DL 1080p] Оригинал [iTunes] piratbit.pw

Как Витька Чеснок вез Леху Штыря в дом инвалидов через торрент piratbit.pw

Размер: 3.54 GB | Добавлен: 2 года 9 мес. назад | Торрент скачан:1084 раза
Скачать  

11-12-2017 09:48 Как Витька Чеснок вез Леху Штыря в дом инвалидов Скачать торрент  

Как Витька Чеснок вез Леху Штыря в дом инвалидов
««Стань тем, что ты есть»»

Год выпуска: 2017
Страна: Россия
Жанр: драма, криминал
Продолжительность: 01:29:40
Перевод: Не требуется [Русский] (iTunes)
Режиссер: Александр Хант
В ролях:

Алексей Серебряков (Леха Штырь), Евгений Ткачук (Витька Чеснок), Ольга Лапшина (теща), Алина Насибуллина (Лариска), Георгий Кудренко (Мишка Кум), Роман Шаляпин (Валет), Александра Велескевич (Оля), Ксения Орлова (Настя), Наталия Вдовина (Вера), Дмитрий Архангельский (Чебур), Ольга Воронина (Ленка), Андрей Смирнов
Описание:
Картина расскажет о 27-летнем Витьке Чесноке, парне с детдомовским прошлым, который мечтает сбежать от «мешающих» ему жить жены и сына. Недолюбленный в детстве и очерствевший сердцем Витька Чеснок встречает своего отца-уголовника, а теперь еще и калеку. Витька решает отвезти отца в дом инвалидов, не подозревая, какие приключения и опасности ждут их по дороге.
Рейтинг:

Качество: WEB-DL 1080p
Формат: MKV
Видео: AVC, 1920x1080 (16:9), 5149 kbps, 24 fps, 0,103 bpp
Аудио: русский / AC3 / 5.1 / 48 kHz / 384 kbps / |Оригинал|
Навигация по главам: есть

General
Unique ID : 229392535909369136809540500304615972069 (0xAC936538745C5C218B488CF8AAA41CE5)
Complete name : E:\43CH0k.i.WHyP.2O17.O.WEB-DL.1O8Op.mkv
Format : Matroska
Format version : Version 2
File size : 3.54 GiB
Duration : 1 h 29 min
Overall bit rate : 5 645 kb/s
Encoded date : UTC 2017-12-10 19:06:16
Writing application : mkvmerge v8.3.0 ('Over the Horizon') 64bit
Writing library : libebml v1.3.1 + libmatroska v1.4.2

Video
ID : 1
Format : AVC
Format/Info : Advanced Video Codec
Format profile : High@L4
Format settings, CABAC : Yes
Format settings, ReFrames : 4 frames
Codec ID : V_MPEG4/ISO/AVC
Duration : 1 h 29 min
Bit rate : 5 149 kb/s
Width : 1 920 pixels
Height : 1 080 pixels
Display aspect ratio : 16:9
Frame rate mode : Constant
Frame rate : 24.000 FPS
Color space : YUV
Chroma subsampling : 4:2:0
Bit depth : 8 bits
Scan type : Progressive
Bits/(Pixel*Frame) : 0.103
Stream size : 3.23 GiB (91%)
Language : English
Default : Yes
Forced : No
Color range : Limited
Color primaries : BT.709
Transfer characteristics : BT.709
Matrix coefficients : BT.709

Audio
ID : 2
Format : AC-3
Format/Info : Audio Coding 3
Mode extension : CM (complete main)
Format settings, Endianness : Big
Codec ID : A_AC3
Duration : 1 h 29 min
Bit rate mode : Constant
Bit rate : 384 kb/s
Channel(s) : 6 channels
Channel positions : Front: L C R, Side: L R, LFE
Sampling rate : 48.0 kHz
Frame rate : 31.250 FPS (1536 spf)
Compression mode : Lossy
Stream size : 246 MiB (7%)
Language : Russian
Default : Yes
Forced : No

Menu
00:00:00.000 : en:Глава 1
00:06:54.000 : en:Глава 2
00:13:36.916 : en:Глава 3
00:20:44.249 : en:Глава 4
00:27:26.665 : en:Глава 5
00:32:55.248 : en:Глава 6
00:38:11.664 : en:Глава 7
00:43:30.205 : en:Глава 8
00:47:50.455 : en:Глава 9
00:54:28.538 : en:Глава 10
00:59:17.704 : en:Глава 11
01:04:49.370 : en:Глава 12
01:10:26.245 : en:Глава 13
01:15:50.578 : en:Глава 14
01:22:14.578 : en:Глава 15
piratbit.pw



Скачать Как Витька Чеснок вез Леху Штыря в дом инвалидов через торрент http://i2.imageban.ru/out/2017/12/11/7126c83505398af6a212a751f0290c18.jpg Скачать фильм Как Витька Чеснок вез Леху Штыря в дом инвалидов через торрент бесплантно в хорошем качестве Описание: Картина расскажет о 27-летнем Витьке Чесноке, парне с детдомовским прошлым, который мечтает сбежать от «мешающих» ему жить жены и ... 9.6 10 27
Info! Золотая раздача, скачанное не засчитывается.
Торрент: Зарегистрирован [2017-12-11 09:48] · скачан: 1 084 раз
Статус: √ проверено
Размер: 3.54 GB
Как cкачать? Как скачать Как Витька Чеснок вез Леху Штыря в дом инвалидов через торрент | qTorrent

% Раздел Тема Автор DL S | L
Наши новые фильмы 2017 [ 1.46 GB ] Как Витька Чеснок вез Леху Штыря в дом инвалидов [2017 BDRip] [Русский] [] Twi7ter Скачать
2 | 0
Наши фильмы (HD, WEB-DL 720p, 1080p) [ 4.39 GB ] Как Витька Чеснок вез Леху Штыря в дом инвалидов [2017 BDRip 720p] [] - ExKinoRay Enigma2010 Скачать
1 | 0
Наши новые фильмы 2017 [ 1.71 GB ] Как Витька Чеснок вез Леху Штыря в дом инвалидов [2017 BDRip-AVC] [] - ExKinoRay Enigma2010 Скачать
1 | 0
Наши новые фильмы 2017 [ 1.46 GB ] Как Витька Чеснок вез Леху Штыря в дом инвалидов [2017 BDRip] [] bober100 Скачать
1 | 0
Наши фильмы (HD, WEB-DL 720p, 1080p) [ 9.56 GB ] Как Витька Чеснок вез Леху Штыря в дом инвалидов [2017 BDRip 1080p] [] bober100 Скачать
1 | 0
Наши фильмы (Blu-ray, BD-Remux, HDDVD) [ 14.24 GB ] Как Витька Чеснок вез Леху Штыря в дом инвалидов [2017 BD Remux 1080p] [] bober100 Скачать
1 | 0
Наши фильмы (Blu-ray, BD-Remux, HDDVD) [ 14.86 GB ] Как Витька Чеснок вез Леху Штыря в дом инвалидов [2017 Blu-ray 1080p] [] bober100 Скачать
1 | 0

28-11-2019 20:33  

Отключить всю рекламу на сайте

12-12-2017 12:36 Как Витька Чеснок вез Леху Штыря в дом инвалидов Скачать торрент  

Когда прочитал название думал упоролсяpiratbit.pw



08-03-2019 11:51 Как Витька Чеснок вез Леху Штыря в дом инвалидов Скачать торрент  

Kонь писал(а):

Когда прочитал название думал упоролся

аналогично! я аж 3 раза перечиталpiratbit.pw



17-03-2019 18:10 Как Витька Чеснок вез Леху Штыря в дом инвалидов Скачать торрент  

Спасибо за киноpiratbit.pw



    Дорогой пользователь! Огромная просьба, поблагодарите релизера, оцените раздачу и оставьте свои комментарий, если Вы скачали Как Витька Чеснок вез Леху Штыря в дом инвалидов через торрент бесплатно! Внесите свою лепту в развитие PiratBit!
    Комментировать посты могут только пользователи прошедшие не сложную регистрацию
    Показать сообщения:    

    Как Витька Чеснок вез Леху Штыря в дом инвалидов через торрент
    Скачать бесплатно Как Витька Чеснок вез Леху Штыря в дом инвалидов
    Как Витька Чеснок вез Леху Штыря в дом инвалидов скачать торрент
    Как Витька Чеснок вез Леху Штыря в дом инвалидов смотреть онлайн
    Cкачать фильм Как Витька Чеснок вез Леху Штыря в дом инвалидов бесплатно
    Как Витька Чеснок вез Леху Штыря в дом инвалидов скачать торрент в хорошем качестве
    Как Витька Чеснок вез Леху Штыря в дом инвалидов смотреть онлайн бесплатно в хорошем качестве


    Вы не можете начинать темы
    Вы не можете отвечать на сообщения
    Вы не можете редактировать свои сообщения
    Вы не можете удалять свои сообщения
    Вы не можете голосовать в опросах
    Вы не можете прикреплять файлы к сообщениям
    Вы можете скачивать файлы