Ссылка на приватное зеркало нашего сайта всего за 1$. Внимание количество ограничено!!!

2 сезон

iTunes

iTunes

1

iTunes

iTunes

iTunes

WEBRip

iTunes

30
pack

Вам бонус

ВАЖНО

!!Акция!!

Alien_RageХит недели

RePack

Horizon Zero Dawn

ИГРА 18+

pack

RePack

jed

!!Акция!!

Alien_Rage

RePack

fifa19

RePack

Assassins Creed: Odyssey

RePack

NEED FOR SPEED™ PAYBACK

4 сезон

9 сезон

Бесстыжие 9 сезон

Все сериалы

все сериалы на PB.wtf

RePack

FAR CRY 5
  

Как Витька Чеснок вез Леху Штыря в дом инвалидов (Александр Хант) [2017 г., драма, криминал, WEB-DL 720p] Оригинал [iTunes] piratbit.pw

Как Витька Чеснок вез Леху Штыря в дом инвалидов через торрент piratbit.pw

Размер: 2.8 GB | Добавлен: 2 года 9 мес. назад | Торрент скачан:320 раз
Скачать  

11-12-2017 07:14 Как Витька Чеснок вез Леху Штыря в дом инвалидов Скачать торрент  

Как Витька Чеснок вез Леху Штыря в дом инвалидов (2017) WEB-DL 720p Год выпуска: 2017
Страна: Россия
Производство: ВГИК-Дебют
Жанр: Драма, криминал
Продолжительность: 01:29:41

Режиссёр: Александр Хант
В ролях: Алексей Серебряков, Евгений Ткачук, Ольга Лапшина, Алина Насибуллина, Георгий Кудренко, Роман Шаляпин, Александра Велескевич, Ксения Орлова, Наталия Вдовина, Дмитрий Архангельский

Перевод: Оригинал [iTunes]
Субтитры: Отсутствуют

Описание: Картина расскажет о 27-летнем Витьке Чесноке, парне с детдомовским прошлым, который мечтает сбежать от «мешающих» ему жить жены и сына. Недолюбленный в детстве и очерствевший сердцем Витька Чеснок встречает своего отца-уголовника, а теперь еще и калеку. Витька решает отвезти отца в дом инвалидов, не подозревая, какие приключения и опасности ждут их по дороге.



Формат: MKV
Качество: WEB-DL 720p

Видео кодек: MPEG-4 AVC
Аудио кодек: AC3
Видео: 1280×720 (16:9), 24.000 fps, MPEG-4 AVC ~ 4092 kbps avg, 0.185 bit/pixel
Аудио: AC3, 48 kHz, 6 ch, ~ 384.00 kbps avg

Дата премьеры (мир): 6 июля 2017
Дата премьеры (РФ): 12 октября 2017
General
Unique ID : 230758137589990507773314687857739115555 (0xAD9A6694E6D4308885CC27B7757F2C23)
Complete name : Ka.ViTka.ChesNoK...2O17.O.WEB-DL.72Op.mkv
Format : Matroska
Format version : Version 2
File size : 2.80 GiB
Duration : 1 h 29 min
Overall bit rate : 4 477 kb/s
Encoded date : UTC 2017-12-10 19:07:55
Writing application : mkvmerge v8.3.0 ('Over the Horizon') 64bit
Writing library : libebml v1.3.1 + libmatroska v1.4.2

Video
ID : 1
Format : AVC
Format/Info : Advanced Video Codec
Format profile : High@L3.1
Format settings, CABAC : No
Format settings, RefFrames : 2 frames
Codec ID : V_MPEG4/ISO/AVC
Duration : 1 h 29 min
Bit rate : 4 092 kb/s
Width : 1 280 pixels
Height : 720 pixels
Display aspect ratio : 16:9
Frame rate mode : Constant
Frame rate : 24.000 FPS
Color space : YUV
Chroma subsampling : 4:2:0
Bit depth : 8 bits
Scan type : Progressive
Bits/(Pixel*Frame) : 0.185
Stream size : 2.56 GiB (91%)
Language : English
Default : Yes
Forced : No
Color range : Limited
Color primaries : BT.709
Transfer characteristics : BT.709
Matrix coefficients : BT.709

Audio
ID : 2
Format : AC-3
Format/Info : Audio Coding 3
Format settings, Endianness : Big
Codec ID : A_AC3
Duration : 1 h 29 min
Bit rate mode : Constant
Bit rate : 384 kb/s
Channel(s) : 6 channels
Channel positions : Front: L C R, Side: L R, LFE
Sampling rate : 48.0 kHz
Frame rate : 31.250 FPS (1536 SPF)
Bit depth : 16 bits
Compression mode : Lossy
Stream size : 246 MiB (9%)
Language : Russian
Service kind : Complete Main
Default : Yes
Forced : No

Menu
00:00:00.000 : en:Глава 1
00:06:54.000 : en:Глава 2
00:13:36.916 : en:Глава 3
00:20:44.249 : en:Глава 4
00:27:26.665 : en:Глава 5
00:32:55.248 : en:Глава 6
00:38:11.664 : en:Глава 7
00:43:30.205 : en:Глава 8
00:47:50.455 : en:Глава 9
00:54:28.538 : en:Глава 10
00:59:17.704 : en:Глава 11
01:04:49.370 : en:Глава 12
01:10:26.245 : en:Глава 13
01:15:50.578 : en:Глава 14
01:22:14.578 : en:Глава 15
скриншот  скриншот  скриншот  скриншот  скриншот  скриншот  
piratbit.pw



Скачать Как Витька Чеснок вез Леху Штыря в дом инвалидов через торрент http://i103.fastpic.ru/big/2017/1211/6e/ebb685657e40783a714969b437c2b16e.jpg Скачать фильм Как Витька Чеснок вез Леху Штыря в дом инвалидов через торрент бесплантно в хорошем качестве Описание: Картина расскажет о 27-летнем Витьке Чесноке, парне с детдомовским прошлым, который мечтает сбежать от «мешающих» ему жить жены и ... 8.8 10 8
Торрент: Зарегистрирован [2017-12-11 07:14] · скачан: 320 раз
Статус: √ проверено
Размер: 2.8 GB
Как cкачать? Как скачать Как Витька Чеснок вез Леху Штыря в дом инвалидов через торрент | qTorrent

% Раздел Тема Автор DL S | L
Наши фильмы (HD, WEB-DL 720p, 1080p) [ 3.54 GB ] Как Витька Чеснок вез Леху Штыря в дом инвалидов [2017 WEB-DL 1080p] Оригинал -Lexx- Скачать
3 | 0
Наши новые фильмы 2017 [ 1.46 GB ] Как Витька Чеснок вез Леху Штыря в дом инвалидов [2017 BDRip] [Русский] [] Twi7ter Скачать
4 | 0
Наши фильмы (HD, WEB-DL 720p, 1080p) [ 4.39 GB ] Как Витька Чеснок вез Леху Штыря в дом инвалидов [2017 BDRip 720p] [] - ExKinoRay Enigma2010 Скачать
1 | 0
Наши новые фильмы 2017 [ 1.71 GB ] Как Витька Чеснок вез Леху Штыря в дом инвалидов [2017 BDRip-AVC] [] - ExKinoRay Enigma2010 Скачать
1 | 0
Наши новые фильмы 2017 [ 1.46 GB ] Как Витька Чеснок вез Леху Штыря в дом инвалидов [2017 BDRip] [] bober100 Скачать
1 | 0
Наши фильмы (HD, WEB-DL 720p, 1080p) [ 9.56 GB ] Как Витька Чеснок вез Леху Штыря в дом инвалидов [2017 BDRip 1080p] [] bober100 Скачать
1 | 0
Наши фильмы (Blu-ray, BD-Remux, HDDVD) [ 14.24 GB ] Как Витька Чеснок вез Леху Штыря в дом инвалидов [2017 BD Remux 1080p] [] bober100 Скачать
1 | 0

28-11-2019 20:33  

Отключить всю рекламу на сайте

    Дорогой пользователь! Огромная просьба, поблагодарите релизера, оцените раздачу и оставьте свои комментарий, если Вы скачали Как Витька Чеснок вез Леху Штыря в дом инвалидов через торрент бесплатно! Внесите свою лепту в развитие PiratBit!
    Комментировать посты могут только пользователи прошедшие не сложную регистрацию
    Показать сообщения:    

    Как Витька Чеснок вез Леху Штыря в дом инвалидов через торрент
    Скачать бесплатно Как Витька Чеснок вез Леху Штыря в дом инвалидов
    Как Витька Чеснок вез Леху Штыря в дом инвалидов скачать торрент
    Как Витька Чеснок вез Леху Штыря в дом инвалидов смотреть онлайн
    Cкачать фильм Как Витька Чеснок вез Леху Штыря в дом инвалидов бесплатно
    Как Витька Чеснок вез Леху Штыря в дом инвалидов скачать торрент в хорошем качестве
    Как Витька Чеснок вез Леху Штыря в дом инвалидов смотреть онлайн бесплатно в хорошем качестве


    Вы не можете начинать темы
    Вы не можете отвечать на сообщения
    Вы не можете редактировать свои сообщения
    Вы не можете удалять свои сообщения
    Вы не можете голосовать в опросах
    Вы не можете прикреплять файлы к сообщениям
    Вы можете скачивать файлы