1 сезон

1 сезон

iTunes

1

КиноПоиск HD

Кинопоиск HD

iTunes

13

1 сезон

RePack

30

Ultimate

ВАЖНО

ИГРА 18+

pack

RePack

MK11
pack

Легкие деньги

RePack

jed

RePack

fifa19

RePack

RDR2

RePack

NEED FOR SPEED™ PAYBACK

4 сезон

9 сезон

Бесстыжие 9 сезон

Все сериалы

все сериалы на PB.wtf

RePack

FAR CRY 5
  
Magnet ссылка

Убить за 68 / 68 Kill (Трент Хаага) [2017, триллер, мелодрама, комедия, криминал, BDRip] [1080p] [AVO] (М.Яроцкий (kyberpunk)) piratbit.pw

Убить за 68 через торрент piratbit.pw

Размер: 1.89 GB | Добавлен: 3 года 4 мес. назад | Торрент скачан:51 раз
Скачать  

10-12-2017 07:13 Убить за 68 Скачать торрент  

Убить за 68 / 68 Kill
Год выхода: 2017
Произведено: США
Жанр: триллер, мелодрама, комедия, криминал
Продолжительность: 01:31:52
Перевод: Авторский (одноголосый, закадровый) Михаил Яроцкий (kyberpunk)

Режиссер постановщик: Трент Хаага

В главных ролях: Мэттью Грей Гублер, АннаЛинн МакКорд, Алиша Боэ, Шейла Ванд, Сэм Эйдсон, Майкл Бисли, Джеймс Моусес Блэк, Дэвид Мальдонадо, Эджей Мехта

О фильме: Проблема Чипа в том, что он просто не может сказать «нет» красивым женщинам. Эта его слабость приводит к большим проблемам, когда он соглашается помочь своей подружке украсть 68 тысяч долларов.

rating

Файл
Качество: BDRip 1080p [68.Kill.2017.1080p.BluRay.H264.AAC-RARBG]
Видео данные: AVC, 1920x808, 25.000 fps, 2500 Кбит/с
Аудио данные: 48 kHz, AC3 Dolby Digital, 6 ch, ~448 kbps

Цитата:

Релиз доступен благодаря: nortonn, СерП, kidman644, 7654, dikii, karbofos, ikstu, r0mka, etamax, Amadeys, sstonecold. Работа со звуком Переводман

General
Unique ID : 219968243746559668923159074493790498859 (0xA57C57BE1BCCED1CB19FA1AF9541302B)
Complete name : F:\NEW VIDEO\68.Kill.2017.x264.HDRip.1080p.Kyberpunk.mkv
Format : Matroska
Format version : Version 4 / Version 2
File size : 1.89 GiB
Duration : 1 h 31 min
Overall bit rate : 2 950 kb/s
Encoded date : UTC 2017-12-09 15:53:50
Writing application : mkvmerge v6.0.0 ('Coming Up For Air') built on Jan 20 2013 09:52:00
Writing library : libebml v1.3.0 + libmatroska v1.4.0
Cover : Yes
Attachments : cover.jpg

Video
ID : 1
Format : AVC
Format/Info : Advanced Video Codec
Format profile : High@L4.1
Format settings : CABAC / 4 Ref Frames
Format settings, CABAC : Yes
Format settings, RefFrames : 4 frames
Codec ID : V_MPEG4/ISO/AVC
Duration : 1 h 31 min
Bit rate : 2 500 kb/s
Width : 1 920 pixels
Height : 808 pixels
Display aspect ratio : 2.40:1
Frame rate mode : Constant
Frame rate : 25.000 FPS
Color space : YUV
Chroma subsampling : 4:2:0
Bit depth : 8 bits
Scan type : Progressive
Bits/(Pixel*Frame) : 0.064
Stream size : 1.57 GiB (83%)
Title : сценрип
Writing library : x264 core 152 r2851M ba24899
Encoding settings : cabac=1 / ref=4 / deblock=1:-1:-1 / analyse=0x3:0x113 / me=umh / subme=9 / psy=1 / psy_rd=1.00:0.15 / mixed_ref=1 / me_range=24 / chroma_me=1 / trellis=2 / 8x8dct=1 / cqm=0 / deadzone=21,11 / fast_pskip=1 / chroma_qp_offset=-3 / threads=32 / lookahead_threads=4 / sliced_threads=0 / nr=0 / decimate=1 / interlaced=0 / bluray_compat=0 / constrained_intra=0 / bframes=3 / b_pyramid=2 / b_adapt=2 / b_bias=0 / direct=3 / weightb=1 / open_gop=0 / weightp=2 / keyint=250 / keyint_min=25 / scenecut=40 / intra_refresh=0 / rc_lookahead=50 / rc=2pass / mbtree=1 / bitrate=2500 / ratetol=1.0 / qcomp=0.60 / qpmin=0 / qpmax=69 / qpstep=4 / cplxblur=20.0 / qblur=0.5 / vbv_maxrate=31250 / vbv_bufsize=31250 / nal_hrd=none / filler=0 / ip_ratio=1.40 / aq=3:1.00
Default : Yes
Forced : No

Audio
ID : 2
Format : AC-3
Format/Info : Audio Coding 3
Format settings, Endianness : Big
Codec ID : A_AC3
Duration : 1 h 31 min
Bit rate mode : Constant
Bit rate : 448 kb/s
Channel(s) : 6 channels
Channel positions : Front: L C R, Side: L R, LFE
Sampling rate : 48.0 kHz
Frame rate : 31.250 FPS (1536 SPF)
Bit depth : 16 bits
Compression mode : Lossy
Delay relative to video : -43 ms
Stream size : 294 MiB (15%)
Title : AVO Kyberpunk
Language : Russian
Service kind : Complete Main
Default : Yes
Forced : No
piratbit.pw



Скачать Убить за 68 через торрент http://i100.fastpic.ru/big/2017/1210/83/f114d7e0bef6bc90a4ef1cf321794683.jpg Скачать фильм Убить за 68 через торрент бесплантно в хорошем качестве О фильме: Проблема Чипа в том, что он просто не может сказать «нет» красивым женщинам. Эта его слабость приводит к большим проблемам, когда ... 8.3 10 3
Торрент: Зарегистрирован [2017-12-10 07:13] · скачан: 51 раз
Статус: # сомнительно
Размер: 1.89 GB
Как cкачать? Как скачать Убить за 68 через торрент | UTorrent

% Раздел Тема Автор DL S | L
Фильмы (Blu-ray, BD-Remux, HDDVD) [ 17.51 GB ] Убить за 68 / 68 Kill [2017 BD Remux 1080p] AVO [М.Яроцкий] bober100 Скачать
1 | 0
T Релизы по Парсеру [Игры, Сериалы и Фильмы и другое...] [ 2.71 GB ] Убить за 68 / 68 Kill [2017 WEB-DL 720p] MVO [Синема УС] bober100 Скачать
1 | 0
Релизы по Парсеру [Игры, Сериалы и Фильмы и другое...] [ 1.45 GB ] Убить за 68 / 68 Kill [2017 WEB-DLRip] MVO [Синема УС] bober100 Скачать
1 | 0
Фильмы без перевода [ 1.39 GB ] Убить за 68 / 68 Kill [2017 HDRip] [Оригинал-ENG] PROCTOLOG Скачать
1 | 0


Последний раз редактировалось: killermax2013 (2017-12-10 10:29), всего редактировалось 2 раз(а)

28-11-2019 20:33  

Отключить всю рекламу на сайте

10-12-2017 07:16 Убить за 68 Скачать торрент  

Модераторов попрошу не закрывать из за тех данных рипа, такой взят с первоисточника piratbit.pw



10-12-2017 07:37 Убить за 68 Скачать торрент  

killermax2013 писал(а):

Модераторов попрошу не закрывать из за тех данных рипа, такой взят с первоисточника

сэмпл можно?piratbit.pw



10-12-2017 09:27 Убить за 68 Скачать торрент  

где скорость?piratbit.pw



10-12-2017 09:35 Убить за 68 Скачать торрент  

schultz писал(а):

killermax2013 писал(а):

Модераторов попрошу не закрывать из за тех данных рипа, такой взят с первоисточника

сэмпл можно?

сделаемpiratbit.pw



10-12-2017 09:54 Убить за 68 Скачать торрент  

Скорость необходима чтоб скачать - русская народная пословица . ЕЕ пока что нету увы (piratbit.pw



10-12-2017 10:30 Убить за 68 Скачать торрент  

schultz, piratbit.pw



    Дорогой пользователь! Огромная просьба, поблагодарите релизера, оцените раздачу и оставьте свои комментарий, если Вы скачали Убить за 68 через торрент бесплатно! Внесите свою лепту в развитие PiratBit!
    Комментировать посты могут только пользователи прошедшие не сложную регистрацию
    Показать сообщения:    

    Убить за 68 через торрент
    Скачать бесплатно Убить за 68
    Убить за 68 скачать торрент
    Убить за 68 смотреть онлайн
    Cкачать фильм Убить за 68 бесплатно
    Убить за 68 скачать торрент в хорошем качестве
    Убить за 68 смотреть онлайн бесплатно в хорошем качестве


    Вы не можете начинать темы
    Вы не можете отвечать на сообщения
    Вы не можете редактировать свои сообщения
    Вы не можете удалять свои сообщения
    Вы не можете голосовать в опросах
    Вы не можете прикреплять файлы к сообщениям
    Вы можете скачивать файлы