1 сезон

3 сезон

iTunes

1

iTunes

DUB Netflix

iTunes

13

1 сезон

RePack

30

Deluxe

pack

Легкие деньги

ВАЖНО

ИГРА 18+

pack

RePack

MK11

RePack

jed

RePack

fifa19

RePack

RDR2

RePack

NEED FOR SPEED™ PAYBACK

4 сезон

9 сезон

Бесстыжие 9 сезон

Все сериалы

все сериалы на PB.wtf

RePack

FAR CRY 5

Anonymous, доброй ночи, мы не успеваем до 1 числа собрать деньги на оплату серверов, помогите нам пожалуйста в это трудное время. В качестве благодарности мы отключим Вам всю рекламу на сайте (укажите свой ник в строку Ваше имя)!

×
  
Magnet ссылка

Другой мир 2: Эволюция / Underworld: Evolution (Лен Уайзман) [2006 г., Фантастика, Фэнтези, Боевик, Триллер, Приключения, BDRip-AVC, Дубляж] piratbit.pw

Другой мир 2: Эволюция через торрент piratbit.pw

Размер: 2.17 GB | Добавлен: 3 года 6 мес. назад | Торрент скачан:16 раз
Скачать  

09-12-2017 22:54 Другой мир 2: Эволюция Скачать торрент  

Другой мир 2: Эволюция /
Underworld: Evolution
Год выпуска: 2006
Страна: США, Канада, Венгрия
Жанр: Фантастика, Фэнтези, Боевик, Триллер, Приключения
Продолжительность: 01:46:21
Перевод: Профессиональный (полное дублирование) Лицензия
Субтитры: отсутствуют

Режиссер: Лен Уайзман

Премьера в мире: 12 января 2006

rating

В ролях: Кейт Бекинсейл, Скотт Спидман, Тони Кёрран, Дерек Джекоби, Билл Найи, Стивен Макинтош, Шэйн Бролли, Брайан Стил, Зита Гёрёг, Скотт МакЭлрой

Описание: В зловещем ночном мире, скрытом от взора простых смертных, не утихает беспощадная борьба между двумя кланами властителей мрака — вампирами и оборотнями. Настала пора узнать об истоках вековой вражды, ставшей для вампира-воительницы Селин и Майкла, полуоборотня-получеловека, проклятьем и смыслом существования.
Сражаясь с могущественными врагами из обоих кланов, древними магистрами смерти, они познают кровавую интригу и запретную любовь, чтобы в сумраке ночи раскрыть тайну своего происхождения и своего наследия. Их ждет великая битва, которая покончит с вечным противостоянием — последняя схватка ради окончания всех войн, в которой бессмертные должны понести кару и расплатиться за свои злодеяния…

Качество: BDRip-AVC
Формат: MKV
Видео кодек: H.264
Аудио кодек: AC3
Видео: AVC/H.264, 1024х432 (2,40:1), ~2466 kbps, 0.233 bit/pixel
Аудио#1: Русский: AC3, 6 ch, 448 kbps - Профессиональный (полное дублирование) Лицензия
Релиз от: winchester00100010
Общее
Уникальный идентификатор : 208242099682509652755643725992721703604 (0x9CA9F8342BB2FC059364C5F0D148E2B4)
Полное имя : E:\Торрент файлы раздач вместе с фильмами\Underworld.Evolution.2006.BDRip-AVC.mkv
Формат : Matroska
Версия формата : Version 2
Размер файла : 2,17 Гбайт
Продолжительность : 1 ч. 46 м.
Общий поток : 2915 Кбит/сек
Дата кодирования : UTC 2017-11-22 07:09:48
Программа кодирования : mkvmerge v7.8.0 ('River Man') 32bit built on Apr 3 2015 12:11:22
Библиотека кодирования : libebml v1.3.1 + libmatroska v1.4.2

Видео
Идентификатор : 1
Формат : AVC
Формат/Информация : Advanced Video Codec
Профиль формата : High@L4.1
Настройки формата : CABAC / 12 Ref Frames
Параметр CABAC формата : Да
Параметр RefFrames формата : 12 кадров
Идентификатор кодека : V_MPEG4/ISO/AVC
Продолжительность : 1 ч. 46 м.
Битрейт : 2466 Кбит/сек
Ширина : 1024 пикселя
Высота : 432 пикселя
Соотношение сторон : 2,40:1
Режим частоты кадров : Постоянный
Частота кадров : 23,976 (24000/1001) кадра/сек
Цветовое пространство : YUV
Субдискретизация насыщенности : 4:2:0
Битовая глубина : 8 бит
Тип развёртки : Прогрессивная
Бит/(Пиксели*Кадры) : 0.233
Размер потока : 1,79 Гбайт (83%)
Библиотека кодирования : x264 core 146 r2538 121396c
Настройки программы : cabac=1 / ref=12 / deblock=1:-3:-3 / analyse=0x3:0x113 / me=umh / subme=9 / psy=1 / psy_rd=1.00:0.00 / mixed_ref=1 / me_range=24 / chroma_me=1 / trellis=2 / 8x8dct=1 / cqm=0 / deadzone=21,11 / fast_pskip=0 / chroma_qp_offset=-2 / threads=12 / lookahead_threads=2 / sliced_threads=0 / nr=0 / decimate=0 / interlaced=0 / bluray_compat=0 / constrained_intra=0 / bframes=6 / b_pyramid=2 / b_adapt=2 / b_bias=0 / direct=3 / weightb=1 / open_gop=0 / weightp=2 / keyint=240 / keyint_min=23 / scenecut=40 / intra_refresh=0 / rc_lookahead=40 / rc=2pass / mbtree=0 / bitrate=2466 / ratetol=1.0 / qcomp=0.60 / qpmin=0 / qpmax=69 / qpstep=4 / cplxblur=20.0 / qblur=0.5 / vbv_maxrate=14000 / vbv_bufsize=14000 / nal_hrd=none / filler=0 / ip_ratio=1.40 / pb_ratio=1.30 / aq=1:1.00
Default : Да
Forced : Нет

Аудио
Идентификатор : 2
Формат : AC-3
Формат/Информация : Audio Coding 3
Идентификатор кодека : A_AC3
Продолжительность : 1 ч. 46 м.
Вид битрейта : Постоянный
Битрейт : 448 Кбит/сек
Каналы : 6 каналов
Расположение каналов : Front: L C R, Side: L R, LFE
Частота : 48,0 КГц
Частота кадров : 31,250 кадров/сек (1536 SPF)
Битовая глубина : 16 бит
Метод сжатия : С потерями
Размер потока : 341 Мбайт (15%)
ServiceKind/String : Complete Main
Default : Да
Forced : Нет

piratbit.pw



Скачать Другой мир 2: Эволюция через торрент https://pic1.kartinco.top/images/11/tn6rd.jpg Скачать фильм Другой мир 2: Эволюция через торрент бесплантно в хорошем качестве Описание: В зловещем ночном мире, скрытом от взора простых смертных, не утихает беспощадная борьба между двумя кланами властителей мрака — ... 10 10 3
Info! Золотая раздача, скачанное не засчитывается.
Торрент: Зарегистрирован [2017-12-11 16:43] · скачан: 16 раз
Статус: √ проверено
Размер: 2.17 GB
Как cкачать? Как скачать Другой мир 2: Эволюция через торрент | UTorrent

% Раздел Тема Автор DL S | L
Фильмы [HD 720p, 1080p] (Хороший звук DUB, MVO) [ 4.05 GB ] Другой мир 2: Эволюция / Underworld: Evolution [2005 BDRip 720p ] Seff2 Скачать
1 | 0
Фильмы 2006-2008 [ 2.18 GB ] Другой мир 2: Эволюция / Underworld: Evolution [2006 BDRip] кэп Скачать
1 | 0

28-11-2019 20:33  

Отключить всю рекламу на сайте

11-12-2017 16:43 Другой мир 2: Эволюция Скачать торрент  

Перезалил торрент файлик, так как человек писал вконтакте мне, что
он не может скачать и не качается раздача, перекачайте торрентpiratbit.pw



    Дорогой пользователь! Огромная просьба, поблагодарите релизера, оцените раздачу и оставьте свои комментарий, если Вы скачали Другой мир 2: Эволюция через торрент бесплатно! Внесите свою лепту в развитие PiratBit!
    Комментировать посты могут только пользователи прошедшие не сложную регистрацию
    Показать сообщения:    

    Другой мир 2: Эволюция через торрент
    Скачать бесплатно Другой мир 2: Эволюция
    Другой мир 2: Эволюция скачать торрент
    Другой мир 2: Эволюция смотреть онлайн
    Cкачать фильм Другой мир 2: Эволюция бесплатно
    Другой мир 2: Эволюция скачать торрент в хорошем качестве
    Другой мир 2: Эволюция смотреть онлайн бесплатно в хорошем качестве


    Вы не можете начинать темы
    Вы не можете отвечать на сообщения
    Вы не можете редактировать свои сообщения
    Вы не можете удалять свои сообщения
    Вы не можете голосовать в опросах
    Вы не можете прикреплять файлы к сообщениям
    Вы можете скачивать файлы