Ссылка на приватное зеркало всего за 1$. Внимание количество ограничено!!!

iTunes

iTunes

iTunes

1

iTunes

iTunes

iTunes

iTunes

iTunes

30
pack

Новость дня

ВАЖНО

!!Акция!!

Alien_RageХит недели

RePack

Resident Evil 21

ИГРА 18+

pack

RePack

jed

!!Акция!!

Alien_Rage

RePack

fifa19

RePack

Assassins Creed: Odyssey

RePack

NEED FOR SPEED™ PAYBACK

4 сезон

9 сезон

Бесстыжие 9 сезон

Все сериалы

все сериалы на PB.wtf

RePack

FAR CRY 5
  

Голодные игры: Сойка-пересмешница. Часть II / The Hunger Games: Mockingjay - Part 2 (Фрэнсис Лоуренс) [2015, Фантастика, боевик, приключения, UHD BDRemux 2160p] DUB [iTunes] piratbit.pw

Голодные игры: Сойка-пересмешница. Часть II через торрент piratbit.pw

Размер: 58.73 GB | Добавлен: 2 года 3 мес. назад | Торрент скачан:48 раз
Скачать  

07-12-2017 11:06 Голодные игры: Сойка-пересмешница. Часть II Скачать торрент  

Голодные игры: Сойка-пересмешница. Часть II /
The Hunger Games: Mockingjay - Part 2
Год выпуска: 2015
Страна: США
Жанр: Фантастика, боевик, приключения
Продолжительность: 02:16:55
Перевод: Дублированный | iTunes
Субтитры: Русские (full), английские

Режиссер: Фрэнсис Лоуренс

rating

В ролях:

Дженнифер Лоуренс, Джош Хатчерсон, Лиам Хемсворт, Вуди Харрельсон, Дональд Сазерленд, Филип Сеймур Хоффман, Джулианна Мур, Уиллоу Шилдс, Сэм Клафлин, Элизабет Бэнкс, Махершала Али, Джена Мэлоун, Джеффри Райт, Паула Малкомсон, Стэнли Туччи, Натали Дормер, Ивэн Росс, Элден Хенсон, Уэс Чэтэм, Эжени Бондюран

Описание:

В Панеме начинается гражданская война против власти Капитолия. Китнисс Эвердин является символом Революции, однако сама себя не осознает как мессия повстанцев. Заручившись помощью близких друзей, Китнисс отправляется в Капитолий. Друзья готовы рискнуть своими жизнями, чтобы освободить граждан Панема, а Китнисс предпринимает попытку убить президента Сноу, который, в свою очередь, одержим идеей навсегда покончить с героиней Дистрикта 12. Но победа повстанцев имеет горький вкус, и Китнисс ждёт гораздо более трудное испытание, чем смертельные ловушки арены Голодных игр.

Качество: UHD BDRemux 2160p
Формат: MKV
Видео кодек: H.264
Аудио кодек: AC3/TrueHD

Видео: MPEG-H HEVC HDR Video, 3840x2160, 56.0 Mbit/s, 23.976 fps
Аудио#1: 48 kHz, AC3, 5.1, 384 Kbps | Дублированный | iTunes | RUS |
Аудио#2: 48 kHz, TrueHD, 7.1, 4257 Kbps | Оригинал | ENG |
Аудио#3: 48 kHz, AC3, 5.1, 384 Kbps | Оригинал | ENG |

Релиз от:
скриншот  скриншот  скриншот  скриншот  скриншот  

скриншот  скриншот  скриншот  скриншот  скриншот  

General
Unique ID : 189390940079778783068975621751128093521 (0x8E7B5E46E9712C809FA637E28B127351)
Complete name : G:VideoSSDThe.Hunger.Games.Mockingjay.Part.2.2015.BDREMUX.2160p.4K.UltraHD.HEVC.HDR.ExKinoRay.mkv
Format : Matroska
Format version : Version 4 / Version 2
File size : 58.7 GiB
Duration : 2 h 16 min
Overall bit rate mode : Variable
Overall bit rate : 61.4 Mb/s
Movie name : The Hunger Games Mockingjay - Part 2 2015 from ExKinoRay
Encoded date : UTC 2017-12-07 10:01:39
Writing application : mkvmerge v18.0.0 ('Apricity') 64-bit
Writing library : libebml v1.3.5 + libmatroska v1.4.8

Video
ID : 1
Format : HEVC
Format/Info : High Efficiency Video Coding
Format profile : Main 10@L5.1@High
Codec ID : V_MPEGH/ISO/HEVC
Duration : 2 h 16 min
Bit rate : 56.0 Mb/s
Width : 3 840 pixels
Height : 2 160 pixels
Display aspect ratio : 16:9
Frame rate mode : Constant
Frame rate : 23.976 (24000/1001) FPS
Color space : YUV
Chroma subsampling : 4:2:0 (Type 2)
Bit depth : 10 bits
Bits/(Pixel*Frame) : 0.282
Stream size : 53.6 GiB (91%)
Language : English
Default : Yes
Forced : No
Color range : Limited
Color primaries : BT.2020
Transfer characteristics : PQ
Matrix coefficients : BT.2020 non-constant
Mastering display color pri : R: x=0.680000 y=0.320000, G: x=0.265000 y=0.690000, B: x=0.150000 y=0.060000, White point: x=0.312700 y=0.329000
Mastering display luminance : min: 0.0050 cd/m2, max: 4000.0000 cd/m2
Maximum Content Light Level : 3940 cd/m2
Maximum Frame-Average Light : 371 cd/m2

Audio #1
ID : 2
Format : AC-3
Format/Info : Audio Coding 3
Format settings, Endianness : Big
Codec ID : A_AC3
Duration : 2 h 16 min
Bit rate mode : Constant
Bit rate : 384 kb/s
Channel(s) : 6 channels
Channel positions : Front: L C R, Side: L R, LFE
Sampling rate : 48.0 kHz
Frame rate : 31.250 FPS (1536 SPF)
Bit depth : 16 bits
Compression mode : Lossy
Stream size : 376 MiB (1%)
Title : iTunes
Language : Russian
Service kind : Complete Main
Default : Yes
Forced : No

Audio #2
ID : 3
Format : TrueHD
Format profile : TrueHD+Atmos / TrueHD
Codec ID : A_TRUEHD
Duration : 2 h 16 min
Bit rate mode : Variable
Bit rate : 4 257 kb/s
Maximum bit rate : 9 570 kb/s
Channel(s) : Object Based / 8 channels
Channel positions : Object Based / Front: L C R, Side: L R, Back: L R, LFE
Sampling rate : / 48.0 kHz
Frame rate : 1 200.000 FPS (40 SPF)
Compression mode : Lossless
Stream size : 4.07 GiB (7%)
Title : Original
Language : English
Default : No
Forced : No

Audio #3
ID : 4
Format : AC-3
Format/Info : Audio Coding 3
Format settings, Endianness : Big
Codec ID : A_AC3
Duration : 2 h 16 min
Bit rate mode : Constant
Bit rate : 640 kb/s
Channel(s) : 6 channels
Channel positions : Front: L C R, Side: L R, LFE
Sampling rate : 48.0 kHz
Frame rate : 31.250 FPS (1536 SPF)
Bit depth : 16 bits
Compression mode : Lossy
Stream size : 627 MiB (1%)
Language : English
Service kind : Complete Main
Default : No
Forced : No

Text #1
ID : 5
Format : UTF-8
Codec ID : S_TEXT/UTF8
Codec ID/Info : UTF-8 Plain Text
Duration : 2 h 4 min
Bit rate : 81 b/s
Count of elements : 1350
Stream size : 74.0 KiB (0%)
Title : Full
Language : Russian
Default : No
Forced : No

Text #2
ID : 6
Format : UTF-8
Codec ID : S_TEXT/UTF8
Codec ID/Info : UTF-8 Plain Text
Duration : 2 h 4 min
Bit rate : 45 b/s
Count of elements : 1287
Stream size : 41.6 KiB (0%)
Title : Full
Language : English
Default : No
Forced : No

Text #3
ID : 7
Format : UTF-8
Codec ID : S_TEXT/UTF8
Codec ID/Info : UTF-8 Plain Text
Duration : 2 h 4 min
Bit rate : 49 b/s
Count of elements : 1425
Stream size : 45.0 KiB (0%)
Title : SDH
Language : English
Default : No
Forced : No

Menu
00:00:00.000 : en:00:00:00.000
00:07:39.042 : en:00:07:39.042
00:16:49.216 : en:00:16:49.216
00:24:46.985 : en:00:24:46.985
00:31:59.960 : en:00:31:59.960
00:37:11.688 : en:00:37:11.688
00:46:42.716 : en:00:46:42.716
00:55:00.881 : en:00:55:00.881
01:02:46.429 : en:01:02:46.429
01:09:27.496 : en:01:09:27.496
01:18:42.968 : en:01:18:42.968
01:29:51.136 : en:01:29:51.136
01:37:08.239 : en:01:37:08.239
01:49:01.785 : en:01:49:01.785
01:56:55.759 : en:01:56:55.759
02:03:33.239 : en:02:03:33.239

piratbit.pw



Скачать Голодные игры: Сойка-пересмешница. Часть II через торрент http://s014.radikal.ru/i326/1712/19/5f67d19605a4.jpg Скачать фильм Голодные игры: Сойка-пересмешница. Часть II через торрент бесплантно в хорошем качестве Описание: В Панеме начинается гражданская война против власти Капитолия. Китнисс Эвердин является символом Революции, однако сама себя не ... 10 10 4
Info! Золотая раздача, скачанное не засчитывается.
Торрент: Зарегистрирован [2017-12-07 11:06] · скачан: 48 раз
Статус: √ проверено
Размер: 58.73 GB
Как cкачать? Как скачать Голодные игры: Сойка-пересмешница. Часть II через торрент | qTorrent

% Раздел Тема Автор DL S | L
Фильмы [HD 720p, 1080p] (Хороший звук DUB, MVO) [ 11 GB ] Голодные игры: Сойка-пересмешница. Часть II / The Hunger Games: Mockingjay - Part 2 [2015 BDRip 1080p / ] Ворон Скачать
1 | 0
Фильмы 2015 [DVDrip, WEB-DLRip, HDrip] [ 1.46 GB ] Голодные игры: Сойка-пересмешница. Часть II / The Hunger Games: Mockingjay - Part 2 [2015 BDRip] ] Twi7ter Скачать
1 | 0
Фильмы 2015 [DVDrip, WEB-DLRip, HDrip] [ 2.85 GB ] Голодные игры: Сойка-пересмешница. Часть II / The Hunger Games: Mockingjay - Part 2 [2015 BDRip-AVC] potroks Скачать
1 | 0
Фильмы 2015 [DVDrip, WEB-DLRip, HDrip] [ 795 MB ] Голодные игры: Сойка-пересмешница. Часть II / The Hunger Games: Mockingjay - Part 2 [2015 HDRip] Leonardo'D Скачать
1 | 0
R.G. Resident & PiratVoice - Фильмы, Видео [ 2.21 GB ] Голодные игры: Сойка-пересмешница. Часть II / The Hunger Games: Mockingjay - Part 2 [2015 BDRip-AVC ] schultz Скачать
1 | 0
Фильмы [HD 720p, 1080p] (Хороший звук DUB, MVO) [ 4.89 GB ] Голодные игры: Сойка-пересмешница. Часть II / The Hunger Games: Mockingjay - Part 2 [2015 BDRip 720p / ] Ворон Скачать
3 | 0
3D Фильмы [ 12.3 GB ] Голодные игры: Сойка-пересмешница. Часть II в 3Д / The Hunger Games: Mockingjay - Part 2 3D [2015 BDrip 1080p] OverUnder / Вертикальная стереопара serega768 Скачать
1 | 0

28-11-2019 20:33  

Отключить всю рекламу на сайте

07-12-2017 12:27 Голодные игры: Сойка-пересмешница. Часть II Скачать торрент  

ну лично мне её порно-фотки гораздо больше понравились,чем какие то киношки,мля... piratbit.pw



    Дорогой пользователь! Огромная просьба, поблагодарите релизера, оцените раздачу и оставьте свои комментарий, если Вы скачали Голодные игры: Сойка-пересмешница. Часть II через торрент бесплатно! Внесите свою лепту в развитие PiratBit!
    Комментировать посты могут только пользователи прошедшие не сложную регистрацию
    Показать сообщения:    

    Голодные игры: Сойка-пересмешница. Часть II через торрент
    Скачать бесплатно Голодные игры: Сойка-пересмешница. Часть II
    Голодные игры: Сойка-пересмешница. Часть II скачать торрент
    Голодные игры: Сойка-пересмешница. Часть II смотреть онлайн
    Cкачать фильм Голодные игры: Сойка-пересмешница. Часть II бесплатно
    Голодные игры: Сойка-пересмешница. Часть II скачать торрент в хорошем качестве
    Голодные игры: Сойка-пересмешница. Часть II смотреть онлайн бесплатно в хорошем качестве


    Вы не можете начинать темы
    Вы не можете отвечать на сообщения
    Вы не можете редактировать свои сообщения
    Вы не можете удалять свои сообщения
    Вы не можете голосовать в опросах
    Вы не можете прикреплять файлы к сообщениям
    Вы можете скачивать файлы