1 сезон

1 сезон

iTunes

1

КиноПоиск HD

Кинопоиск HD

iTunes

13

1 сезон

RePack

30

Новинка

ВАЖНО

ИГРА 18+

pack

RePack

MK11
pack

Легкие деньги

RePack

jed

RePack

fifa19

RePack

RDR2

RePack

NEED FOR SPEED™ PAYBACK

4 сезон

9 сезон

Бесстыжие 9 сезон

Все сериалы

все сериалы на PB.wtf

RePack

FAR CRY 5
  
Magnet ссылка

Четыре мухи на сером бархате / 4 mosche di velluto grigio (Дарио Ардженто) [1971 г., триллер, криминал, детектив, BDRip-AVC] AVO (Алексеев) piratbit.pw

Четыре мухи на сером бархате через торрент piratbit.pw

Размер: 2.18 GB | Добавлен: 3 года 4 мес. назад | Торрент скачан:6 раз
Скачать  

05-12-2017 11:33 Четыре мухи на сером бархате Скачать торрент  

Четыре мухи на сером бархате / 4 mosche di velluto grigio
Год выпуска: 1971
Страна: Италия, Франция
Жанр: триллер, криминал, детектив
Продолжительность: 01:43:19
Перевод: Авторский (Антон Алексеев)
Тип релиза: UK Uncut Transfer
Субтитры: Английские

Режиссер: Дарио Ардженто

rating

В ролях: Майкл Брэндон, Мимзи Фармер, Жан-Пьер Марьель, Бад Спенсер, Альдо Буфи Ланди, Калисто Калисти, Мариса Фаббри, Оресте Лионнелло, Фабрицио Морони, Коррадо Ольми

Описание: Молодой музыкант поздно вечером в нелепой потасовке случайно зарезал странного типа его же ножом. Далее Ардженто разыгрывает свою излюбленную карту - нагнетание подозрений, кошмаров и новых смертей...

Качество: BDRip-AVC (Four.Flies.on.Grey.Velvet.1971.1080p.Bluray.UK.Uncut.AVC.Remux)
Формат: MKV
Видео: MPEG-4 AVC, 2632 Kбит/с, 1024x436, 23.976 кадр/с
Аудио #1: AC3, 2 ch, 192 Кбит/с | Русский
Аудио #2: AC3, 2 ch, 192 Кбит/с | Итальянский
Релиз от: Koenig
скриншот   скриншот   скриншот   скриншот   скриншот   скриншот  

Общее
Уникальный идентификатор : 194006608153559243123124964546776800051 (0x91F450486E14591E80DD89B8D2121B33)
Полное имя : Four.Flies.on.Grey.Velvet.1971.UK.Uncut.BDRip-AVC.mkv
Формат : Matroska
Версия формата : Version 4 / Version 2
Размер файла : 2,18 Гбайт
Продолжительность : 1 ч. 43 м.
Общий поток : 3018 Кбит/сек
Название фильма : Four.Flies.on.Grey.Velvet.1971.UK.Uncut.BDRip-AVC by Koenig
Дата кодирования : UTC 2017-11-25 18:21:00
Программа кодирования : mkvmerge v12.0.0 ('Trust / Lust') 32bit
Библиотека кодирования : libebml v1.3.4 + libmatroska v1.4.5
Обложка : Yes
Attachments : cover.jpg

Видео
Идентификатор : 1
Формат : AVC
Формат/Информация : Advanced Video Codec
Профиль формата : High@L4.1
Параметр CABAC формата : Да
Параметр ReFrames формата : 11 кадров
Идентификатор кодека : V_MPEG4/ISO/AVC
Продолжительность : 1 ч. 43 м.
Битрейт : 2632 Кбит/сек
Ширина : 1024 пикселя
Высота : 436 пикселей
Соотношение сторон : 2,35:1
Режим частоты кадров : Постоянный
Частота кадров : 23,976 (24000/1001) кадра/сек
Цветовое пространство : YUV
Субдискретизация насыщенности : 4:2:0
Битовая глубина : 8 бит
Тип развёртки : Прогрессивная
Бит/(Пиксели*Кадры) : 0.246
Размер потока : 1,90 Гбайт (87%)
Заголовок : Four.Flies.on.Grey.Velvet.1971.UK.Uncut.BDRip-AVC
Библиотека кодирования : x264 core 152 r2851 ba24899
Настройки программы : cabac=1 / ref=11 / deblock=1:-3:-3 / analyse=0x3:0x133 / me=umh / subme=10 / psy=1 / psy_rd=1.10:0.10 / mixed_ref=1 / me_range=32 / chroma_me=1 / trellis=2 / 8x8dct=1 / cqm=0 / deadzone=21,11 / fast_pskip=0 / chroma_qp_offset=-3 / threads=3 / lookahead_threads=1 / sliced_threads=0 / nr=0 / decimate=1 / interlaced=0 / bluray_compat=0 / constrained_intra=0 / bframes=10 / b_pyramid=2 / b_adapt=2 / b_bias=0 / direct=3 / weightb=1 / open_gop=0 / weightp=2 / keyint=240 / keyint_min=23 / scenecut=40 / intra_refresh=0 / rc_lookahead=40 / rc=2pass / mbtree=1 / bitrate=2632 / ratetol=1.0 / qcomp=0.60 / qpmin=10 / qpmax=51 / qpstep=4 / cplxblur=20.0 / qblur=0.5 / vbv_maxrate=50000 / vbv_bufsize=62500 / nal_hrd=none / filler=0 / ip_ratio=1.40 / aq=1:1.00
Язык : Italian
Default : Да
Forced : Нет

Аудио #1
Идентификатор : 2
Формат : AC-3
Формат/Информация : Audio Coding 3
Параметр Endianness формата : Big
Идентификатор кодека : A_AC3
Продолжительность : 1 ч. 43 м.
Вид битрейта : Постоянный
Битрейт : 192 Кбит/сек
Каналы : 2 канала
Расположение каналов : Front: L R
Частота : 48,0 КГц
Частота кадров : 31,250 кадров/сек (1536 spf)
Битовая глубина : 16 бит
Метод сжатия : С потерями
Размер потока : 142 Мбайт (6%)
Заголовок : AVO - Алексеев
Язык : Russian
ServiceKind/String : Complete Main
Default : Да
Forced : Нет

Аудио #2
Идентификатор : 3
Формат : AC-3
Формат/Информация : Audio Coding 3
Параметр Endianness формата : Big
Идентификатор кодека : A_AC3
Продолжительность : 1 ч. 43 м.
Вид битрейта : Постоянный
Битрейт : 192 Кбит/сек
Каналы : 2 канала
Расположение каналов : Front: L R
Частота : 48,0 КГц
Частота кадров : 31,250 кадров/сек (1536 spf)
Битовая глубина : 16 бит
Метод сжатия : С потерями
Размер потока : 142 Мбайт (6%)
Язык : Italian
ServiceKind/String : Complete Main
Default : Нет
Forced : Нет

Текст
Идентификатор : 4
Формат : UTF-8
Идентификатор кодека : S_TEXT/UTF8
Идентификатор кодека/Информация : UTF-8 Plain Text
Продолжительность : 1 ч. 39 м.
Битрейт : 33 бит/сек
ElementCount : 702
Размер потока : 24,5 Кбайт (0%)
Язык : English
Default : Да
Forced : Нет

Меню
00:00:00.000 : en:Opening Credits
00:07:11.848 : en:Are You Still Awake
00:21:49.475 : en:God Almighty
00:29:36.441 : en:Park
00:45:20.051 : en:Arrosio
00:50:25.397 : en:I Must get Away
00:58:02.687 : en:Villa Rapidi
01:04:49.093 : en:You Guessed Right
01:14:58.077 : en:Call me Back
01:22:50.215 : en:Four Flies
01:26:45.242 : en:She is Crazy
01:41:13.567 : en:End Credits

piratbit.pw



Скачать Четыре мухи на сером бархате через торрент https://pic1.kartinco.top/images/11/pqn22.jpg Скачать фильм Четыре мухи на сером бархате через торрент бесплантно в хорошем качестве Описание: Молодой музыкант поздно вечером в нелепой потасовке случайно зарезал странного а его же ножом. Далее Ардженто разыгрывает свою ... 10 10 1
Торрент: Зарегистрирован [2017-12-05 11:33] · скачан: 6 раз
Статус: √ проверено
Размер: 2.18 GB
Как cкачать? Как скачать Четыре мухи на сером бархате через торрент | UTorrent

% Раздел Тема Автор DL S | L
Фильмы с авторской озвучкой [ 8.87 GB ] Четыре мухи на сером бархате / 4 mosche di velluto grigio [1971 BDRip 1080p by msltel] AVO msltel Скачать
1 | 0
Фильмы с авторской озвучкой [ 3.8 GB ] Четыре мухи на сером бархате / 4 mosche di velluto grigio [1971 BDRip 720p by msltel] AVO msltel Скачать
1 | 0

28-11-2019 20:33  

Отключить всю рекламу на сайте

    Дорогой пользователь! Огромная просьба, поблагодарите релизера, оцените раздачу и оставьте свои комментарий, если Вы скачали Четыре мухи на сером бархате через торрент бесплатно! Внесите свою лепту в развитие PiratBit!
    Комментировать посты могут только пользователи прошедшие не сложную регистрацию
    Показать сообщения:    

    Четыре мухи на сером бархате через торрент
    Скачать бесплатно Четыре мухи на сером бархате
    Четыре мухи на сером бархате скачать торрент
    Четыре мухи на сером бархате смотреть онлайн
    Cкачать фильм Четыре мухи на сером бархате бесплатно
    Четыре мухи на сером бархате скачать торрент в хорошем качестве
    Четыре мухи на сером бархате смотреть онлайн бесплатно в хорошем качестве


    Вы не можете начинать темы
    Вы не можете отвечать на сообщения
    Вы не можете редактировать свои сообщения
    Вы не можете удалять свои сообщения
    Вы не можете голосовать в опросах
    Вы не можете прикреплять файлы к сообщениям
    Вы можете скачивать файлы