Ссылка на приватное зеркало всего за 1$. Внимание количество ограничено!!!

iTunes

iTunes

iTunes

1

iTunes

iTunes

iTunes

iTunes

iTunes

30
pack

Новость дня

ВАЖНО

!!Акция!!

Alien_RageХит недели

RePack

Resident Evil 21

ИГРА 18+

pack

RePack

jed

!!Акция!!

Alien_Rage

RePack

fifa19

RePack

Assassins Creed: Odyssey

RePack

NEED FOR SPEED™ PAYBACK

4 сезон

9 сезон

Бесстыжие 9 сезон

Все сериалы

все сериалы на PB.wtf

RePack

FAR CRY 5
  

Чужой / Alien (Ридли Скотт) [1979 г., ужасы, фантастика, WEB-DL 2160p] DUB + 2x MVO + 6x AVO + ENG +Subs piratbit.pw

Чужой через торрент piratbit.pw

Размер: 70.18 GB | Добавлен: 2 года 4 мес. назад | Торрент скачан:28 раз
Скачать  

29-11-2017 11:02 Чужой Скачать торрент  

Чужой / Alien Год выпуска: 1979
Страна: Великобритания, США
Производство: Brandywine Productions Ltd., Twentieth Century-Fox Productions Ltd.
Жанр: Ужасы, фантастика

Режиссёр: Ридли Скотт
В ролях: Сигурни Уивер, Том Скеррит, Вероника Картрайт, Гарри Дин Стэнтон, Джон Хёрт, Иэн Холм, Яфет Котто, Боладжи Бадеджо, Хелен Хортон, Эдди Пауэлл

Перевод: Профессиональный (полное дублирование) [Blu-ray CEE], Профессиональный (многоголосый, закадровый) [20 век фокс], Профессиональный (многоголосый, закадровый) [«Премьер Видео Фильм»], Авторский (одноголосый, закадровый) [Д. Пучков (Goblin)], Авторский (одноголосый, закадровый) [Ю. Живов], 3x Авторский (одноголосый, закадровый) [Горчаков], Авторский (одноголосый, закадровый) [Володарский], Авторский (одноголосый, закадровый) [Неизвестный], Авторский (одноголосый, закадровый) [Махонько], Оригинал (английский), 2x комментарии (английские) (1999) - (2003)
Субтитры: Русские, английские (полные), комментарии (русские, английские)

Описание: В далеком будущем возвращающийся на Землю грузовой космический корабль перехватывает исходящий с неизвестной планеты неопознанный сигнал. Экипаж принимает решение совершить посадку и разобраться, в чем дело. Оказавшись на планете, астронавты повсюду обнаруживают неопознанные предметы, по виду напоминающие гигантские коконы…



Формат: MKV
Качество: WEB-DL 2160p
Продолжительность: 01:56:37

Видео кодек: MPEG-4 AVC
Аудио кодек: AС3, DTS, DTS-HD MA

Видео: 4096x2304 (16:9), 23.976 fps, MPEG-4 AVC ~ 80.0 Mbps avg, 0.354 bit/pixel

Аудио#1: DTS, 48 kHz, 6 ch, ~ 768.00 kbps avg | Профессиональный (полное дублирование) [Blu-ray CEE]
Аудио#2: DTS, 48 kHz, 6 ch, ~ 755.00 kbps avg | Профессиональный (многоголосый, закадровый) [20 век фокс]
Аудио#3: AС3, 48 kHz, 2 ch, ~ 192.00 kbps avg | Профессиональный (многоголосый, закадровый) [«Премьер Видео Фильм»]
Аудио#4: AС3, 48 kHz, 6 ch, ~ 448.00 kbps avg | Авторский (одноголосый, закадровый) [Д. Пучков (Goblin)]
Аудио#5: AС3, 48 kHz, 2 ch, ~ 192.00 kbps avg | Авторский (одноголосый, закадровый) [Ю. Живов]
Аудио#6: AС3, 48 kHz, 2 ch, ~ 192.00 kbps avg | Авторский (одноголосый, закадровый) [Горчаков 1]
Аудио#7: AС3, 48 kHz, 6 ch, ~ 448.00 kbps avg | Авторский (одноголосый, закадровый) [Горчаков 2]
Аудио#8: AС3, 48 kHz, 6 ch, ~ 448.00 kbps avg | Авторский (одноголосый, закадровый) [Горчаков 3]
Аудио#9: AС3, 48 kHz, 2 ch, ~ 192.00 kbps avg | Авторский (одноголосый, закадровый) [Володарский]
Аудио#10: AС3, 48 kHz, 2 ch, ~ 192.00 kbps avg | Авторский (одноголосый, закадровый) [Неизвестный]
Аудио#11: AС3, 48 kHz, 2 ch, ~ 192.00 kbps avg | Авторский (одноголосый, закадровый) [Махонько]
Аудио#12: DTS-HD MA, 48 kHz, 6 ch, ~ 3384.00 kbps avg | Оригинал (английский)
Аудио#13: AС3, 48 kHz, 2 ch, ~ 224.00 kbps avg | Комментарии (английские) (1999)
Аудио#14: AС3, 48 kHz, 2 ch, ~ 224.00 kbps avg | Комментарии (английские) (2003)
General
Unique ID : 229817958609637107565822903368708893451 (0xACE5542DD665FBA7B58A897881F1AB0B)
Complete name : Alien (1979) [Theatrical Cut] QHD 4K Blue Ray.mkv
Format : Matroska
Format version : Version 4 / Version 2
File size : 70.2 GiB
Duration : 1 h 56 min
Overall bit rate : 86.2 Mb/s
Movie name : Alien (1979) [Theatrical Cut] QHD 4K Blue Ray
Encoded date : UTC 2017-08-28 05:09:59
Writing application : mkvmerge v15.0.0 ('Duel with the Devil') 64-bit
Writing library : libebml v1.3.5 + libmatroska v1.4.5

Video
ID : 1
Format : AVC
Format/Info : Advanced Video Codec
Format profile : High@L5.1
Format settings, CABAC : Yes
Format settings, RefFrames : 2 frames
Codec ID : V_MPEG4/ISO/AVC
Duration : 1 h 56 min
Bit rate mode : Constant
Bit rate : 80.0 Mb/s / 80.0 Mb/s
Width : 4 096 pixels
Height : 2 304 pixels
Display aspect ratio : 16:9
Frame rate mode : Constant
Frame rate : 23.976 (24000/1001) FPS
Standard : NTSC
Color space : YUV
Chroma subsampling : 4:2:0
Bit depth : 8 bits
Scan type : Progressive
Bits/(Pixel*Frame) : 0.354
Stream size : 63.8 GiB (91%)
Title : Alien (1979) [Theatrical Cut] QHD 4K Blue Ray
Writing library : x264 core 114
Encoding settings : cabac=1 / ref=2 / deblock=1:0:0 / analyse=0x3:0x113 / me=hex / subme=7 / psy=1 / psy_rd=1.00:0.00 / mixed_ref=1 / me_range=16 / chroma_me=1 / trellis=1 / 8x8dct=1 / cqm=2 / deadzone=21,11 / fast_pskip=1 / chroma_qp_offset=-2 / threads=6 / sliced_threads=0 / slices=1 / nr=0 / decimate=1 / interlaced=0 / constrained_intra=0 / bframes=3 / b_pyramid=0 / b_adapt=1 / b_bias=0 / direct=1 / weightb=1 / open_gop=0 / weightp=2 / keyint=250 / keyint_min=23 / scenecut=100 / intra_refresh=0 / rc_lookahead=40 / rc=cbr / mbtree=1 / bitrate=80000 / ratetol=1.0 / qcomp=0.60 / qpmin=3 / qpmax=69 / qpstep=4 / vbv_maxrate=80000 / vbv_bufsize=79986 / nal_hrd=cbr / ip_ratio=1.40 / aq=1:1.00
Language : English
Default : Yes
Forced : Yes
Color range : Limited
Color primaries : BT.709
Transfer characteristics : BT.709
Matrix coefficients : BT.709

Audio #1
ID : 2
Format : DTS
Format/Info : Digital Theater Systems
Mode : 16
Format settings, Endianness : Big
Codec ID : A_DTS
Duration : 1 h 56 min
Bit rate mode : Constant
Bit rate : 768 kb/s
Channel(s) : 6 channels
Channel positions : Front: L C R, Side: L R, LFE
Sampling rate : 48.0 kHz
Frame rate : 93.750 FPS (512 SPF)
Bit depth : 24 bits
Compression mode : Lossy
Delay relative to video : 22 ms
Stream size : 641 MiB (1%)
Title : DTS, 6ch @ 768 kbps - DUB (Blu-ray CEE)
Language : Russian
Default : Yes
Forced : Yes

Audio #2
ID : 3
Format : DTS
Format/Info : Digital Theater Systems
Mode : 16
Format settings, Endianness : Big
Codec ID : A_DTS
Duration : 1 h 56 min
Bit rate mode : Constant
Bit rate : 755 kb/s
Channel(s) : 6 channels
Channel positions : Front: L C R, Side: L R, LFE
Sampling rate : 48.0 kHz
Frame rate : 93.750 FPS (512 SPF)
Bit depth : 24 bits
Compression mode : Lossy
Delay relative to video : 22 ms
Stream size : 629 MiB (1%)
Title : DTS, 6ch @ 768 kbps - MVO 20 Century Fox
Language : Russian
Default : No
Forced : No

Audio #3
ID : 4
Format : AC-3
Format/Info : Audio Coding 3
Format settings, Endianness : Big
Codec ID : A_AC3
Duration : 1 h 56 min
Bit rate mode : Constant
Bit rate : 192 kb/s
Channel(s) : 2 channels
Channel positions : Front: L R
Sampling rate : 48.0 kHz
Frame rate : 31.250 FPS (1536 SPF)
Bit depth : 16 bits
Compression mode : Lossy
Stream size : 160 MiB (0%)
Title : AC3, 2ch @ 192 kbps - MVO Premier
Language : Russian
Service kind : Complete Main
Default : No
Forced : No

Audio #4
ID : 5
Format : AC-3
Format/Info : Audio Coding 3
Format settings, Endianness : Big
Codec ID : A_AC3
Duration : 1 h 56 min
Bit rate mode : Constant
Bit rate : 448 kb/s
Channel(s) : 6 channels
Channel positions : Front: L C R, Side: L R, LFE
Sampling rate : 48.0 kHz
Frame rate : 31.250 FPS (1536 SPF)
Bit depth : 16 bits
Compression mode : Lossy
Stream size : 374 MiB (1%)
Title : AC3, 6ch @ 448 kbps - AVO Goblin
Language : Russian
Service kind : Complete Main
Default : No
Forced : No

Audio #5
ID : 6
Format : AC-3
Format/Info : Audio Coding 3
Format settings, Endianness : Big
Codec ID : A_AC3
Duration : 1 h 56 min
Bit rate mode : Constant
Bit rate : 192 kb/s
Channel(s) : 2 channels
Channel positions : Front: L R
Sampling rate : 48.0 kHz
Frame rate : 31.250 FPS (1536 SPF)
Bit depth : 16 bits
Compression mode : Lossy
Stream size : 160 MiB (0%)
Title : AC3, 2ch @ 192 kbps - AVO Zhivov
Language : Russian
Service kind : Complete Main
Default : No
Forced : No

Audio #6
ID : 7
Format : AC-3
Format/Info : Audio Coding 3
Format settings, Endianness : Big
Codec ID : A_AC3
Duration : 1 h 56 min
Bit rate mode : Constant
Bit rate : 192 kb/s
Channel(s) : 2 channels
Channel positions : Front: L R
Sampling rate : 48.0 kHz
Frame rate : 31.250 FPS (1536 SPF)
Bit depth : 16 bits
Compression mode : Lossy
Stream size : 160 MiB (0%)
Title : AC3, 2ch @ 192 kbps - AVO Gorchakov #1
Language : Russian
Service kind : Complete Main
Default : No
Forced : No

Audio #7
ID : 8
Format : AC-3
Format/Info : Audio Coding 3
Format settings, Endianness : Big
Codec ID : A_AC3
Duration : 1 h 56 min
Bit rate mode : Constant
Bit rate : 448 kb/s
Channel(s) : 6 channels
Channel positions : Front: L C R, Side: L R, LFE
Sampling rate : 48.0 kHz
Frame rate : 31.250 FPS (1536 SPF)
Bit depth : 16 bits
Compression mode : Lossy
Stream size : 374 MiB (1%)
Title : AC3, 6ch @ 448 kbps - AVO Gorchakov #2
Language : Russian
Service kind : Complete Main
Default : No
Forced : No

Audio #8
ID : 9
Format : AC-3
Format/Info : Audio Coding 3
Format settings, Endianness : Big
Codec ID : A_AC3
Duration : 1 h 56 min
Bit rate mode : Constant
Bit rate : 448 kb/s
Channel(s) : 6 channels
Channel positions : Front: L C R, Side: L R, LFE
Sampling rate : 48.0 kHz
Frame rate : 31.250 FPS (1536 SPF)
Bit depth : 16 bits
Compression mode : Lossy
Stream size : 374 MiB (1%)
Title : AC3, 6ch @ 448 kbps - AVO Gorchakov #3
Language : Russian
Service kind : Complete Main
Default : No
Forced : No

Audio #9
ID : 10
Format : AC-3
Format/Info : Audio Coding 3
Format settings, Endianness : Big
Codec ID : A_AC3
Duration : 1 h 56 min
Bit rate mode : Constant
Bit rate : 192 kb/s
Channel(s) : 2 channels
Channel positions : Front: L R
Sampling rate : 48.0 kHz
Frame rate : 31.250 FPS (1536 SPF)
Bit depth : 16 bits
Compression mode : Lossy
Stream size : 160 MiB (0%)
Title : AC3, 2ch @ 192 kbps - AVO Volodarsky
Language : Russian
Service kind : Complete Main
Default : No
Forced : No

Audio #10
ID : 11
Format : AC-3
Format/Info : Audio Coding 3
Format settings, Endianness : Big
Codec ID : A_AC3
Duration : 1 h 56 min
Bit rate mode : Constant
Bit rate : 192 kb/s
Channel(s) : 2 channels
Channel positions : Front: L R
Sampling rate : 48.0 kHz
Frame rate : 31.250 FPS (1536 SPF)
Bit depth : 16 bits
Compression mode : Lossy
Stream size : 160 MiB (0%)
Title : AC3, 2ch @ 192 kbps - AVO Neizvestny perets
Language : Russian
Service kind : Complete Main
Default : No
Forced : No

Audio #11
ID : 12
Format : AC-3
Format/Info : Audio Coding 3
Format settings, Endianness : Big
Codec ID : A_AC3
Duration : 1 h 56 min
Bit rate mode : Constant
Bit rate : 192 kb/s
Channel(s) : 2 channels
Channel positions : Front: L R
Sampling rate : 48.0 kHz
Frame rate : 31.250 FPS (1536 SPF)
Bit depth : 16 bits
Compression mode : Lossy
Stream size : 160 MiB (0%)
Title : AC3, 2ch @ 192 kbps - AVO Mahon'ko
Language : Russian
Service kind : Complete Main
Default : No
Forced : No

Audio #12
ID : 13
Format : DTS
Format/Info : Digital Theater Systems
Format profile : MA / Core
Mode : 16
Format settings, Endianness : Big
Codec ID : A_DTS
Duration : 1 h 56 min
Bit rate mode : Variable / Constant
Bit rate : 3 384 kb/s / 1 509 kb/s
Channel(s) : 6 channels
Channel positions : Front: L C R, Side: L R, LFE
Sampling rate : 48.0 kHz
Frame rate : 93.750 FPS (512 SPF)
Bit depth : 24 bits
Compression mode : Lossless / Lossy
Stream size : 2.76 GiB (4%)
Title : DTS-HD Master Audio, 6ch @ 3385 kbps
Language : English
Default : No
Forced : No

Audio #13
ID : 14
Format : AC-3
Format/Info : Audio Coding 3
Format settings, Endianness : Big
Codec ID : A_AC3
Duration : 1 h 56 min
Bit rate mode : Constant
Bit rate : 224 kb/s
Channel(s) : 2 channels
Channel positions : Front: L R
Sampling rate : 48.0 kHz
Frame rate : 31.250 FPS (1536 SPF)
Bit depth : 16 bits
Compression mode : Lossy
Stream size : 187 MiB (0%)
Title : AC3, 2ch @ 224 kbps - Commentary (1999)
Language : English
Service kind : Complete Main
Default : No
Forced : No

Audio #14
ID : 15
Format : AC-3
Format/Info : Audio Coding 3
Format settings, Endianness : Big
Codec ID : A_AC3
Duration : 1 h 56 min
Bit rate mode : Constant
Bit rate : 224 kb/s
Channel(s) : 2 channels
Channel positions : Front: L R
Sampling rate : 48.0 kHz
Frame rate : 31.250 FPS (1536 SPF)
Bit depth : 16 bits
Compression mode : Lossy
Stream size : 187 MiB (0%)
Title : AC3, 2ch @ 224 kbps - Commentary (2003)
Language : English
Service kind : Complete Main
Default : No
Forced : No

Text #1
ID : 16
Format : UTF-8
Codec ID : S_TEXT/UTF8
Codec ID/Info : UTF-8 Plain Text
Duration : 1 h 54 min
Bit rate : 43 b/s
Count of elements : 776
Stream size : 36.6 KiB (0%)
Language : Russian
Default : No
Forced : No

Text #2
ID : 17
Format : UTF-8
Codec ID : S_TEXT/UTF8
Codec ID/Info : UTF-8 Plain Text
Duration : 1 h 49 min
Bit rate : 30 b/s
Count of elements : 725
Stream size : 24.1 KiB (0%)
Language : English
Default : No
Forced : No

Text #3
ID : 18
Format : UTF-8
Codec ID : S_TEXT/UTF8
Codec ID/Info : UTF-8 Plain Text
Duration : 1 h 56 min
Bit rate : 110 b/s
Count of elements : 1393
Stream size : 93.8 KiB (0%)
Title : Commentary (1999)
Language : Russian
Default : No
Forced : No

Text #4
ID : 19
Format : UTF-8
Codec ID : S_TEXT/UTF8
Codec ID/Info : UTF-8 Plain Text
Duration : 1 h 56 min
Bit rate : 161 b/s
Count of elements : 1852
Stream size : 138 KiB (0%)
Title : Commentary (2003)
Language : Russian
Default : No
Forced : No

Menu
00:00:00.000 : en:Main Titles
00:02:01.121 : en:Awakenings
00:09:17.223 : en:Nostromo Re-Routed
00:12:47.141 : en:Answering the Call
00:18:36.949 : en:Walking Distance
00:21:53.687 : en:Proceeding Blindly
00:23:53.974 : en:Dark Horizons
00:26:50.608 : en:A Word of Warning
00:31:06.781 : en:Kane's Descent
00:34:47.502 : en:Surface Tension
00:39:14.268 : en:Acid
00:42:06.899 : en:Standard Procedure
00:46:25.282 : en:The Missing Guest
00:50:55.468 : en:Long Journey Ahead
00:53:35.837 : en:The Last Supper
00:58:26.127 : en:On the Hunt
01:03:32.475 : en:"Here Jonesy"
01:08:07.499 : en:"What Are My Chances?"
01:11:01.173 : en:Into the Air Ducts
01:14:09.611 : en:The Third Junction
01:15:51.129 : en:"No Blood, No Dallas"
01:18:37.212 : en:Special Order
01:24:10.128 : en:"Crew Expendable"
01:28:24.006 : en:Escape Plan
01:30:54.323 : en:"Kitty, Kitty, Kitty"
01:32:53.484 : en:Cornered
01:34:44.511 : en:Auto-Destruct Initiated
01:36:28.615 : en:Override Failed
01:39:27.544 : en:Narcissus Escape
01:44:15.957 : en:Survivors
01:47:05.668 : en:"You Are My Lucky Star"
01:53:53.075 : en:End Credits
скриншот  скриншот  скриншот  скриншот  скриншот  скриншот  
piratbit.pw



Скачать Чужой через торрент http://i98.fastpic.ru/big/2017/1129/fa/cb4b66b9277b682ce7e0dd8c0c7b2ffa.jpg Скачать фильм Чужой через торрент бесплантно в хорошем качестве Описание: В далеком будущем возвращающийся на Землю грузовой космический корабль перехватывает исходящий с неизвестной планеты неопознанный ... 10 10 4
Info! Золотая раздача, скачанное не засчитывается.
Торрент: Зарегистрирован [2017-11-29 11:02] · скачан: 28 раз
Статус: √ проверено
Размер: 70.18 GB
Как cкачать? Как скачать Чужой через торрент | qTorrent

28-11-2019 20:33  

Отключить всю рекламу на сайте

    Дорогой пользователь! Огромная просьба, поблагодарите релизера, оцените раздачу и оставьте свои комментарий, если Вы скачали Чужой через торрент бесплатно! Внесите свою лепту в развитие PiratBit!
    Комментировать посты могут только пользователи прошедшие не сложную регистрацию
    Показать сообщения:    

    Чужой через торрент
    Скачать бесплатно Чужой
    Чужой скачать торрент
    Чужой смотреть онлайн
    Cкачать фильм Чужой бесплатно
    Чужой скачать торрент в хорошем качестве
    Чужой смотреть онлайн бесплатно в хорошем качестве


    Вы не можете начинать темы
    Вы не можете отвечать на сообщения
    Вы не можете редактировать свои сообщения
    Вы не можете удалять свои сообщения
    Вы не можете голосовать в опросах
    Вы не можете прикреплять файлы к сообщениям
    Вы можете скачивать файлы