Ссылка на приватное зеркало всего за 1$. Внимание количество ограничено!!!

iTunes

iTunes

iTunes

1

iTunes

iTunes

iTunes

iTunes

iTunes

30
pack

Новость дня

ВАЖНО

!!Акция!!

Alien_RageХит недели

RePack

Resident Evil 21

ИГРА 18+

pack

RePack

jed

!!Акция!!

Alien_Rage

RePack

fifa19

RePack

Assassins Creed: Odyssey

RePack

NEED FOR SPEED™ PAYBACK

4 сезон

9 сезон

Бесстыжие 9 сезон

Все сериалы

все сериалы на PB.wtf

RePack

FAR CRY 5
  

Пятьдесят оттенков серого / Fifty Shades of Grey (Сэм Тейлор-Джонсон) [2015, мелодрама, BDRemux 2160p] DUB [Расширенная версия] [Лицензия BD CEE] piratbit.pw

Пятьдесят оттенков серого через торрент piratbit.pw

Качают: 1 [ 0 KB/s ]
Размер: 43.68 GB | Добавлен: 2 года 4 мес. назад | Торрент скачан:50 раз
Скачать  

21-11-2017 22:30 Пятьдесят оттенков серого Скачать торрент  

Пятьдесят оттенков серого / Fifty Shades of Grey
Расширенная версия
Год выпуска: 2015
Страна: США
Жанр: мелодрама
Продолжительность: 02:08:31
Перевод: Дубляж [Лицензия BD CEE]
Субтитры: Английские, Русские (Full-length, Forced)

Режиссер: Сэм Тейлор-Джонсон

rating

В ролях:

Джейми Дорнан, Дакота Джонсон, Люк Граймс, Виктор Расук, Элоиза Мамфорд, Марша Гей Харден, Рита Ора, Макс Мартини, Каллум Кит Ренни, Дженнифер Или

Описание:

Анастейша Стил — скромная студентка, живущая вместе с близкой подругой-сокурсницей Кейт. За неделю до выпускного в университете Анастейша, по просьбе заболевшей Кейт заменить её, берёт интервью у молодого красавца-миллиардера Кристиана Грея. Интервью складывается не очень удачно, и Анастейша не думает, что они когда-либо встретятся вновь. Неожиданно Грей появляется в хозяйственном магазине, где девушка работает продавцом. Их знакомство продолжается, и Анастейша постепенно узнаёт о тайных сексуальных увлечениях богача.

Качество: BDRemux 2160p
Формат: MKV
Видео кодек: HEVC
Аудио кодек: DTS

Видео: HEVC/H.265, 3840x2160p, (16:9), 41.9 Mb/s, 23,976 fps
Аудио#1: DTS, 6 ch, 768 kbps - Русский
Аудио#2: DTS-HD-MA, 8 ch, 5956 kbps - Английский
скриншот  скриншот  скриншот  скриншот  

Video
ID : 1
Format : HEVC
Format/Info : High Efficiency Video Coding
Format profile : Main 10@L5.1@High
Codec ID : V_MPEGH/ISO/HEVC
Duration : 2 h 8 min
Bit rate : 41.9 Mb/s
Width : 3 840 pixels
Height : 2 160 pixels
Display aspect ratio : 16:9
Frame rate mode : Constant
Frame rate : 23.976 (24000/1001) FPS
Color space : YUV
Chroma subsampling : 4:2:0 (Type 2)
Bit depth : 10 bits
Bits/(Pixel*Frame) : 0.211
Stream size : 37.6 GiB (86%)
Title : 50_SHADES_OF_GREY_BD_UHD_HDR_REMUX-BLUEBIRD
Writing library : ATEME Titan File 3.7.9 (4.7.9.0)
Default : Yes
Forced : No
Color range : Limited
Color primaries : BT.2020
Transfer characteristics : PQ
Matrix coefficients : BT.2020 non-constant
Mastering display color pri : R: x=0.680000 y=0.320000, G: x=0.265000 y=0.690000, B: x=0.150000 y=0.060000, White point: x=0.312700 y=0.329000
Mastering display luminance : min: 0.0050 cd/m2, max: 1000.0000 cd/m2
Maximum Content Light Level : 1000 cd/m2
Maximum Frame-Average Light : 96 cd/m2

Audio #1
ID : 2
Format : DTS
Format/Info : Digital Theater Systems
Mode : 16
Format settings, Endianness : Big
Codec ID : A_DTS
Duration : 2 h 8 min
Bit rate mode : Constant
Bit rate : 768 kb/s
Channel(s) : 6 channels
Channel positions : Front: L C R, Side: L R, LFE
Sampling rate : 48.0 kHz
Frame rate : 93.750 FPS (512 SPF)
Bit depth : 24 bits
Compression mode : Lossy
Stream size : 706 MiB (2%)
Title : [DUB] DTS 5.1 @ 768 kbps
Language : Russian
Default : Yes
Forced : No

Audio #2
ID : 3
Format : DTS
Format/Info : Digital Theater Systems
Format profile : X / MA / Core
Mode : 16
Format settings, Endianness : Big
Codec ID : A_DTS
Duration : 2 h 8 min
Bit rate mode : Variable / Variable / Constant
Bit rate : 5 956 kb/s / 5 956 kb/s / 1 509 kb/s
Channel(s) : Object Based / 8 channels / 6 channels
Channel positions : Object Based / Front: L C R, Side: L R, Back: L R, LFE / Front: L C R, Side: L R, LFE
Sampling rate : / 48.0 kHz / 48.0 kHz
Frame rate : 93.750 FPS (512 SPF)
Bit depth : / 24 bits / 24 bits
Compression mode : / Lossless / Lossy
Stream size : 5.35 GiB (12%)
Title : [ORIGINAL] DTS:X 7.1 @ 5956 kbps
Language : English
Default : No
Forced : No

Text #1
ID : 4
Format : UTF-8
Codec ID : S_TEXT/UTF8
Codec ID/Info : UTF-8 Plain Text
Duration : 2 h 6 min
Bit rate : 57 b/s
Count of elements : 1404
Stream size : 53.6 KiB (0%)
Title : Full-length
Language : Russian
Default : No
Forced : No

Text #2
ID : 5
Format : PGS
Codec ID : S_HDMV/PGS
Codec ID/Info : Picture based subtitle format used on BDs/HD-DVDs
Duration : 1 h 59 min
Bit rate : 32.0 kb/s
Count of elements : 3272
Stream size : 27.4 MiB (0%)
Title : Full-length
Language : English
Default : No
Forced : No

Text #3
ID : 6
Format : UTF-8
Codec ID : S_TEXT/UTF8
Codec ID/Info : UTF-8 Plain Text
Duration : 2 h 6 min
Bit rate : 2 b/s
Count of elements : 51
Stream size : 2.45 KiB (0%)
Title : Forced
Language : Russian
Default : Yes
Forced : Yes

Menu
00:00:00.000 : en:Chapter 1
00:10:26.917 : en:Chapter 2
00:14:28.158 : en:Chapter 3
00:20:31.563 : en:Chapter 4
00:24:05.318 : en:Chapter 5
00:29:49.579 : en:Chapter 6
00:35:07.980 : en:Chapter 7
00:40:18.958 : en:Chapter 8
00:46:33.749 : en:Chapter 9
00:50:22.394 : en:Chapter 10
00:57:05.213 : en:Chapter 11
01:02:19.986 : en:Chapter 12
01:06:50.798 : en:Chapter 13
01:14:28.088 : en:Chapter 14
01:22:16.264 : en:Chapter 15
01:31:11.882 : en:Chapter 16
01:38:14.805 : en:Chapter 17
01:46:21.166 : en:Chapter 18
01:53:19.751 : en:Chapter 19
02:01:42.419 : en:Chapter 20

piratbit.pw



Скачать Пятьдесят оттенков серого через торрент http://s018.radikal.ru/i512/1711/28/fac06d72f9f2.jpg Скачать фильм Пятьдесят оттенков серого через торрент бесплантно в хорошем качестве Описание: Анастейша Стил — скромная студентка, живущая вместе с близкой подругой-сокурсницей Кейт. За неделю до выпускного в университете ... 10 10 3
Торрент: Зарегистрирован [2017-11-21 22:30] · скачан: 50 раз
Статус: √ проверено
Размер: 43.68 GB
Как cкачать? Как скачать Пятьдесят оттенков серого через торрент | qTorrent

28-11-2019 20:33  

Отключить всю рекламу на сайте

22-11-2017 07:23 Пятьдесят оттенков серого Скачать торрент  

что пытаются рассмотреть))piratbit.pw



    Дорогой пользователь! Огромная просьба, поблагодарите релизера, оцените раздачу и оставьте свои комментарий, если Вы скачали Пятьдесят оттенков серого через торрент бесплатно! Внесите свою лепту в развитие PiratBit!
    Комментировать посты могут только пользователи прошедшие не сложную регистрацию
    Показать сообщения:    

    Пятьдесят оттенков серого через торрент
    Скачать бесплатно Пятьдесят оттенков серого
    Пятьдесят оттенков серого скачать торрент
    Пятьдесят оттенков серого смотреть онлайн
    Cкачать фильм Пятьдесят оттенков серого бесплатно
    Пятьдесят оттенков серого скачать торрент в хорошем качестве
    Пятьдесят оттенков серого смотреть онлайн бесплатно в хорошем качестве


    Вы не можете начинать темы
    Вы не можете отвечать на сообщения
    Вы не можете редактировать свои сообщения
    Вы не можете удалять свои сообщения
    Вы не можете голосовать в опросах
    Вы не можете прикреплять файлы к сообщениям
    Вы можете скачивать файлы