1 сезон

1 сезон

iTunes

1

КиноПоиск HD

Кинопоиск HD

iTunes

13

1 сезон

RePack

30

Новинка

ВАЖНО

ИГРА 18+

pack

RePack

MK11
pack

Легкие деньги

RePack

jed

RePack

fifa19

RePack

RDR2

RePack

NEED FOR SPEED™ PAYBACK

4 сезон

9 сезон

Бесстыжие 9 сезон

Все сериалы

все сериалы на PB.wtf

RePack

FAR CRY 5
  
Magnet ссылка

Четыре мухи на сером бархате / 4 mosche di velluto grigio (Дарио Ардженто) [1971, триллер, криминал, детектив, BDRip 720p by msltel] AVO piratbit.pw

Четыре мухи на сером бархате через торрент piratbit.pw

Размер: 3.8 GB | Добавлен: 3 года 5 мес. назад | Торрент скачан:6 раз
Скачать  

19-11-2017 11:42 Четыре мухи на сером бархате Скачать торрент  

Название: Четыре мухи на сером бархате
Оригинальное название: 4 mosche di velluto grigio
Год выпуска: 1971
Страна: Италия, Франция
Жанр: триллер, криминал, детектив
Продолжительность: 01:43:19
Перевод: авторский

Режиссер: Дарио Ардженто
В ролях: Майкл Брэндон, Мимзи Фармер, Жан-Пьер Марьель, Бад Спенсер, Альдо Буфи Ланди, Калисто Калисти, Мариса Фаббри, Оресте Лионнелло, Фабрицио Морони, Коррадо Ольми

О фильме: Молодой музыкант поздно вечером в нелепой потасовке случайно зарезал странного типа его же ножом. Далее Ардженто разыгрывает свою излюбленную карту — нагнетание подозрений, кошмаров и новых смертей...



Качество: BDRip 720p
Формат: MKV
Видео: MPEG-4 AVC, 4875 Kбит/с, 1280x546, 23.976 кадр/с
Аудио 1: русский, AC3, 192 kbps, 2 ch [авторский, Антон Алексеев]
Аудио 2: итальянский, AC3, 192 kbps, 2 ch, 48 kHz [оригинал]
Субтитры: английские
Поименованные главы/чаптеры.
Общее
Уникальный идентификатор : 183519087146809787146680618459908555441 (0x8A107D936436966F80D552A2D05442B1)
Полное имя : D:\Video\Четыре мухи на сером бархате.1971.BDRip.720p by msltel.mkv
Формат : Matroska
Версия формата : Version 4 / Version 2
Размер файла : 3,80 Гбайт
Продолжительность : 1 ч. 43 м.
Общий поток : 5261 Кбит/сек
Название фильма : Rip by msltel
Дата кодирования : UTC 2017-11-18 12:53:35
Программа кодирования : mkvmerge v8.2.0 ('World of Adventure') 64bit
Библиотека кодирования : libebml v1.3.1 + libmatroska v1.4.2

Видео
Идентификатор : 1
Формат : AVC
Формат/Информация : Advanced Video Codec
Профиль формата : High@L4.1
Настройки формата : CABAC / 9 Ref Frames
Параметр CABAC формата : Да
Параметр RefFrames формата : 9 кадров
Идентификатор кодека : V_MPEG4/ISO/AVC
Продолжительность : 1 ч. 43 м.
Битрейт : 4875 Кбит/сек
Ширина : 1280 пикселей
Высота : 546 пикселей
Соотношение сторон : 2,35:1
Режим частоты кадров : Постоянный
Частота кадров : 23,976 (24000/1001) кадра/сек
Цветовое пространство : YUV
Субдискретизация насыщенности : 4:2:0
Битовая глубина : 8 бит
Тип развёртки : Прогрессивная
Бит/(Пиксели*Кадры) : 0.291
Размер потока : 3,52 Гбайт (93%)
Библиотека кодирования : x264 core 146 r2538 121396c
Настройки программы : cabac=1 / ref=9 / deblock=1:-3:-2 / analyse=0x3:0x113 / me=umh / subme=11 / psy=1 / psy_rd=1.00:0.15 / mixed_ref=1 / me_range=32 / chroma_me=1 / trellis=2 / 8x8dct=1 / cqm=0 / deadzone=21,11 / fast_pskip=0 / chroma_qp_offset=-3 / threads=6 / lookahead_threads=1 / sliced_threads=0 / nr=0 / decimate=1 / interlaced=0 / bluray_compat=0 / constrained_intra=0 / bframes=9 / b_pyramid=2 / b_adapt=2 / b_bias=0 / direct=1 / weightb=1 / open_gop=0 / weightp=2 / keyint=230 / keyint_min=23 / scenecut=40 / intra_refresh=0 / rc_lookahead=40 / rc=crf / mbtree=0 / crf=19.0 / qcomp=0.60 / qpmin=0 / qpmax=69 / qpstep=4 / vbv_maxrate=62500 / vbv_bufsize=78125 / crf_max=0.0 / nal_hrd=none / filler=0 / ip_ratio=1.40 / pb_ratio=1.30 / aq=1:1.00
Язык : Italian
Default : Да
Forced : Нет

Аудио #1
Идентификатор : 2
Формат : AC-3
Формат/Информация : Audio Coding 3
Идентификатор кодека : A_AC3
Продолжительность : 1 ч. 43 м.
Вид битрейта : Постоянный
Битрейт : 192 Кбит/сек
Каналы : 2 канала
Расположение каналов : Front: L R
Частота : 48,0 КГц
Частота кадров : 31,250 кадров/сек (1536 SPF)
Битовая глубина : 16 бит
Метод сжатия : С потерями
Размер потока : 142 Мбайт (4%)
Заголовок : Антон Алексеев
Язык : Russian
ServiceKind/String : Complete Main
Default : Да
Forced : Нет

Аудио #2
Идентификатор : 3
Формат : AC-3
Формат/Информация : Audio Coding 3
Идентификатор кодека : A_AC3
Продолжительность : 1 ч. 43 м.
Вид битрейта : Постоянный
Битрейт : 192 Кбит/сек
Каналы : 2 канала
Расположение каналов : Front: L R
Частота : 48,0 КГц
Частота кадров : 31,250 кадров/сек (1536 SPF)
Битовая глубина : 16 бит
Метод сжатия : С потерями
Размер потока : 142 Мбайт (4%)
Заголовок : original
Язык : Italian
ServiceKind/String : Complete Main
Default : Нет
Forced : Нет

Текст
Идентификатор : 4
Формат : UTF-8
Идентификатор кодека : S_TEXT/UTF8
Идентификатор кодека/Информация : UTF-8 Plain Text
Продолжительность : 1 ч. 39 м.
Битрейт : 33 бит/сек
ElementCount : 702
Размер потока : 24,5 Кбайт (0%)
Заголовок : английские
Язык : English
Default : Нет
Forced : Нет

Меню
00:00:00.000 : en:Opening Credits
00:07:11.848 : en:Are You Still Awake
00:21:49.475 : en:God Almighty
00:29:36.441 : en:Park
00:45:20.051 : en:Arrosio
00:50:25.397 : en:I Must get Away
00:58:02.687 : en:Villa Rapidi
01:04:49.093 : en:You Guessed Right
01:14:58.077 : en:Call me Back
01:22:50.215 : en:Four Flies
01:26:45.242 : en:She is Crazy
01:41:13.567 : en:End Credits
piratbit.pw



Скачать Четыре мухи на сером бархате через торрент http://s48.radikal.ru/i122/1711/98/0c291915f3e9.jpg Скачать фильм Четыре мухи на сером бархате через торрент бесплантно в хорошем качестве О фильме: Молодой музыкант поздно вечером в нелепой потасовке случайно зарезал странного а его же ножом. Далее Ардженто разыгрывает свою ... 10 10 2
Info! Золотая раздача, скачанное не засчитывается.
Торрент: Зарегистрирован [2017-11-19 11:42] · скачан: 6 раз
Статус: √ проверено
Размер: 3.8 GB
Как cкачать? Как скачать Четыре мухи на сером бархате через торрент | UTorrent

% Раздел Тема Автор DL S | L
Фильмы с авторской озвучкой [ 2.18 GB ] Четыре мухи на сером бархате / 4 mosche di velluto grigio [1971 BDRip-AVC] AVO koenig Скачать
1 | 0
Фильмы с авторской озвучкой [ 8.87 GB ] Четыре мухи на сером бархате / 4 mosche di velluto grigio [1971 BDRip 1080p by msltel] AVO msltel Скачать
1 | 0

28-11-2019 20:33  

Отключить всю рекламу на сайте

    Дорогой пользователь! Огромная просьба, поблагодарите релизера, оцените раздачу и оставьте свои комментарий, если Вы скачали Четыре мухи на сером бархате через торрент бесплатно! Внесите свою лепту в развитие PiratBit!
    Комментировать посты могут только пользователи прошедшие не сложную регистрацию
    Показать сообщения:    

    Четыре мухи на сером бархате через торрент
    Скачать бесплатно Четыре мухи на сером бархате
    Четыре мухи на сером бархате скачать торрент
    Четыре мухи на сером бархате смотреть онлайн
    Cкачать фильм Четыре мухи на сером бархате бесплатно
    Четыре мухи на сером бархате скачать торрент в хорошем качестве
    Четыре мухи на сером бархате смотреть онлайн бесплатно в хорошем качестве


    Вы не можете начинать темы
    Вы не можете отвечать на сообщения
    Вы не можете редактировать свои сообщения
    Вы не можете удалять свои сообщения
    Вы не можете голосовать в опросах
    Вы не можете прикреплять файлы к сообщениям
    Вы можете скачивать файлы