1 сезон

1 сезон

iTunes

1

КиноПоиск HD

Кинопоиск HD

iTunes

13

1 сезон

RePack

30

Новинка

ВАЖНО

ИГРА 18+

pack

RePack

MK11
pack

Легкие деньги

RePack

jed

RePack

fifa19

RePack

RDR2

RePack

NEED FOR SPEED™ PAYBACK

4 сезон

9 сезон

Бесстыжие 9 сезон

Все сериалы

все сериалы на PB.wtf

RePack

FAR CRY 5
  
Magnet ссылка

Одни / Единственные / Seuls (Давид Моро) [2017, фэнтези, фантастика, BDRip] AVO [Антон Карповский] piratbit.pw

Одни через торрент piratbit.pw

Раздают: 1 [ 0 KB/s ]
Размер: 1.46 GB | Добавлен: 3 года 5 мес. назад | Торрент скачан:110 раз
Скачать  

17-11-2017 08:37 Одни Скачать торрент  

Одни / Единственные / Seuls

Год выпуска: 2017
Страна: Франция, Бельгия
Жанр: фэнтези, фантастика

Продолжительность: 01:37:34
Перевод: Авторский одноголосый [Антон Карповский]
Субтитры: Французские (внешние)
Режиссер: Давид Моро
В ролях:
София Лезафр, Стефан Бак, Жан-Стен Дю Пак, Пол Скарфоглио, Ким Локхарт, Тома Доре, Ренан Мадельпье, Ренан Прево, Инес Спиридонов, Жанн Гитте, Камиль Искер
Описание:
Шестнадцатилетняя Лейла, как обычно, неохотно просыпается рано утром. Однако сегодня никто не торопится её разбудить. Куда делись её заботливые родители? Сев на велосипед, она обыскивает пустынный город. Все вокруг словно испарились. Поймав себя на мысли, что она одна чудом выжила после необъяснимой катастрофы, девочка вдруг встречает четырёх подростков: Доджи, Ивана, Камиллу и Тьерри. Вместе они пытаются выяснить, что произошло, и учатся выживать вместе в опустевшем мире. Только одни ли они там на самом деле?
Рейтинг:

Качество: BDRip
Формат: AVI
Видео: XviD, 720x304 (2.35:1), 1275 kbps, 24 fps, 0,243 bpp
Аудио №1: русский / AC3 / 5.1 / 48 kHz / 384 kbps / - AVO
Аудио №2: французский / AC3 / 5.1 / 48 kHz / 384 kbps / - Оригинал
Автор релиза - ylnian
Заказ перевода с французского у Антона Карповского (август 2017) - ylnian
За сборку дороги спасибо rammzez
Источник для рипа - Blu-Ray (FRA) - Seuls.2017.FRENCH.1080p.BluRay.REMUX.AVC.DTS.HDMA-XANTAR
Французские субтитры - внешние

Описание - из рецензии Антона Карповского

Перевод - Авторский одноголосый (Антон Карповский)

Релиз без рекламы!

General
Complete name : E:\Seuls.2017.BDRip-ylnian\Seuls.2017.BDRip-ylnian.avi
Format : AVI
Format/Info : Audio Video Interleave
File size : 1.46 GiB
Duration : 1 h 37 min
Overall bit rate : 2 139 kb/s
Writing application : VirtualDubMod 1.5.10.2 (build 2540/release)
Writing library : VirtualDubMod build 2540/release

Video
ID : 0
Format : MPEG-4 Visual
Format profile : Advanced Simple@L5
Format settings, BVOP : 1
Format settings, QPel : No
Format settings, GMC : No warppoints
Format settings, Matrix : Default (MPEG)
Codec ID : XVID
Codec ID/Hint : XviD
Duration : 1 h 37 min
Bit rate : 1 275 kb/s
Width : 720 pixels
Height : 304 pixels
Display aspect ratio : 2.35:1
Frame rate : 24.000 FPS
Color space : YUV
Chroma subsampling : 4:2:0
Bit depth : 8 bits
Scan type : Progressive
Compression mode : Lossy
Bits/(Pixel*Frame) : 0.243
Stream size : 890 MiB (60%)
Writing library : XviD 67

Audio #1
ID : 1
Format : AC-3
Format/Info : Audio Coding 3
Mode extension : CM (complete main)
Format settings, Endianness : Big
Codec ID : 2000
Duration : 1 h 37 min
Bit rate mode : Constant
Bit rate : 384 kb/s
Channel(s) : 6 channels
Channel positions : Front: L C R, Side: L R, LFE
Sampling rate : 48.0 kHz
Frame rate : 31.250 FPS (1536 spf)
Compression mode : Lossy
Stream size : 268 MiB (18%)
Alignment : Split accross interleaves
Title : RUS - AVO - Karpovsky

Audio #2
ID : 2
Format : AC-3
Format/Info : Audio Coding 3
Mode extension : CM (complete main)
Format settings, Endianness : Big
Codec ID : 2000
Duration : 1 h 37 min
Bit rate mode : Constant
Bit rate : 384 kb/s
Channel(s) : 6 channels
Channel positions : Front: L C R, Side: L R, LFE
Sampling rate : 48.0 kHz
Frame rate : 31.250 FPS (1536 spf)
Compression mode : Lossy
Stream size : 268 MiB (18%)
Alignment : Split accross interleaves
Title : Franch
piratbit.pw



Скачать Одни через торрент http://i4.imageban.ru/out/2017/11/17/21d930694cba7f8836a5b978e6851cb6.jpg Скачать фильм Одни через торрент бесплантно в хорошем качестве Описание: Шестнадцатилетняя Лейла, как обычно, неохотно просыпается рано утром. Однако сегодня никто не торопится её разбудить. Куда делись ... 8.2 10 5
Торрент: Зарегистрирован [2017-11-17 08:37] · скачан: 110 раз
Статус: √ проверено
Размер: 1.46 GB
Как cкачать? Как скачать Одни через торрент | UTorrent

% Раздел Тема Автор DL S | L
Фильмы с авторской озвучкой [ 9.61 GB ] Одни / Единственные / Seuls [2017 BDRip 1080p] AVO [Антон Карповский] -Lexx- Скачать
1 | 0

28-11-2019 20:33  

Отключить всю рекламу на сайте

    Дорогой пользователь! Огромная просьба, поблагодарите релизера, оцените раздачу и оставьте свои комментарий, если Вы скачали Одни через торрент бесплатно! Внесите свою лепту в развитие PiratBit!
    Комментировать посты могут только пользователи прошедшие не сложную регистрацию
    Показать сообщения:    

    Одни через торрент
    Скачать бесплатно Одни
    Одни скачать торрент
    Одни смотреть онлайн
    Cкачать фильм Одни бесплатно
    Одни скачать торрент в хорошем качестве
    Одни смотреть онлайн бесплатно в хорошем качестве


    Вы не можете начинать темы
    Вы не можете отвечать на сообщения
    Вы не можете редактировать свои сообщения
    Вы не можете удалять свои сообщения
    Вы не можете голосовать в опросах
    Вы не можете прикреплять файлы к сообщениям
    Вы можете скачивать файлы