Marvel's Avengers Deluxe Edition (супер цена) 159р. Внимание количество ограничено!!!

2 сезон

iTunes

iTunes

1

iTunes

iTunes

iTunes

WEBRip

iTunes

30
pack

Новость дня

ВАЖНО

!!Акция!!

Alien_RageХит недели

RePack

Horizon Zero Dawn

ИГРА 18+

pack

RePack

jed

!!Акция!!

Alien_Rage

RePack

fifa19

RePack

Assassins Creed: Odyssey

RePack

NEED FOR SPEED™ PAYBACK

4 сезон

9 сезон

Бесстыжие 9 сезон

Все сериалы

все сериалы на PB.wtf

RePack

FAR CRY 5
  

Снежная сказка (Алексей Сахаров, Эльдар Шенгелая) [1959, СССР, сказка, DVDRip от AVP Studio] piratbit.pw

Снежная сказка через торрент piratbit.pw

Размер: 1.09 GB | Добавлен: 2 года 10 мес. назад | Торрент скачан:64 раза
Скачать  

16-11-2017 08:01 Снежная сказка Скачать торрент  

Снежная сказка
Страна: СССР
Производство: Мосфильм

Жанр: сказка
Год выпуска: 1959
Продолжительность: 01:06:50

Перевод: Не требуется
Cубтитры: нет
Оригинальная аудиодорожка: русский

Режиссер: Алексей Сахаров, Эльдар Шенгелая

В ролях:
Игорь Ершов, Алла Кожокина, Клара Лучко, Зинаида Нарышкина, Вера Алтайская, Евгений Леонов, Николай Сергеев, Михаил Пуговкин...
Об актёрах подробней

Описание:
Действие происходит 31 декабря. В деревне, недалеко от города Синеярска, жил обыкновенный мальчик Митя. Утром в последний день старого года он слепил из снега девочку Лелю и привел ее в школу. По дороге мальчик заметил, что часы с его руки куда-то исчезли. Вскоре в школе появился злой старик — Старый год (Евгений Леонов), который не хочет уступать место Новому. Он стал искать волшебные часы, чтобы остановить время...

Источник: DVD5 R5
Качество видео: DVDRip
Формат видео: AVI

Видео: 720x544 (4:3), 25 fps, XviD ~ 2132 kbps avg, 0.218 bit/pixel
Аудио: 48 kHz, Dolby Digital AC3 2.0, 192 kbps

Раздача от:
Общее
Полное имя : Snezhnaya.skazka.1959.DVDRip_[New-team]_by_AVP_Studio.avi
Формат : AVI
Формат/Информация : Audio Video Interleave
Размер файла : 1,09 Гбайт
Продолжительность : 1 ч. 6 м.
Общий поток : 2334 Кбит/сек
Программа кодирования : VirtualDubMod 1.5.10.3 | www.virtualdub-fr.org || (build 2550/release)
Библиотека кодирования : VirtualDubMod build 2550/release

Видео
Идентификатор : 0
Формат : MPEG-4 Visual
Профиль формата : Advanced Simple@L5
Параметр BVOP формата : 1
Параметр QPel формата : Нет
Параметр GMC формата : Без точки перехода
Параметр матрицы формата : Выборочная
Идентификатор кодека : XVID
Идентификатор кодека/Подсказка : XviD
Продолжительность : 1 ч. 6 м.
Битрейт : 2132 Кбит/сек
Ширина : 720 пикселей
Высота : 544 пикселя
Соотношение сторон : 4:3
Частота кадров : 25,000 кадров/сек
Цветовое пространство : YUV
Субдискретизация насыщенности : 4:2:0
Битовая глубина : 8 бит
Тип развёртки : Прогрессивная
Метод сжатия : С потерями
Бит/(Пиксели*Кадры) : 0.218
Размер потока : 1019 Мбайт (91%)
Библиотека кодирования : XviD 73

Аудио
Идентификатор : 1
Формат : AC-3
Формат/Информация : Audio Coding 3
Параметр Endianness формата : Big
Идентификатор кодека : 2000
Продолжительность : 1 ч. 6 м.
Вид битрейта : Постоянный
Битрейт : 192 Кбит/сек
Каналы : 2 канала
Расположение каналов : Front: L R
Частота : 48,0 КГц
Частота кадров : 31,250 кадров/сек (1536 SPF)
Битовая глубина : 16 бит
Метод сжатия : С потерями
Размер потока : 91,8 Мбайт (8%)
Выравнивание : Разделение по промежуткам
Продолжительность промежутка : 40 мс. (1,00 видеокадр)
Время предзагрузки промежутка : 500 мс
piratbit.pw



Скачать Снежная сказка через торрент http://s008.radikal.ru/i303/1711/bf/35b8bb201fff.png Скачать фильм Снежная сказка через торрент бесплантно в хорошем качестве Описание:Действие происходит 31 декабря. В деревне, недалеко от города Синеярска, жил обыкновенный мальчик Митя. Утром в последний день ... 10 10 1
Info! Золотая раздача, скачанное не засчитывается.
Торрент: Зарегистрирован [2017-11-16 08:01] · скачан: 64 раз
Статус: √ проверено
Размер: 1.09 GB
Как cкачать? Как скачать Снежная сказка через торрент | qTorrent

% Раздел Тема Автор DL S | L
Детские отечественные фильмы [ 745 MB ] Снежная сказка [1959 СССР сказка DVDRip от AVP Studio] AVP Studio Скачать
1 | 0
Детские отечественные фильмы [ 1.09 GB ] Снежная сказка [1959 СССР сказка DVDRip-AVC от AVP Studio] AVP Studio Скачать
1 | 0
Детские отечественные фильмы [ 1.46 GB ] Снежная королева [1966 Сказка DVDRip] -=Cherry=- Скачать
1 | 0

28-11-2019 20:33  

Отключить всю рекламу на сайте

16-11-2017 08:51 Снежная сказка Скачать торрент  

Топик был перенесен из форума Кино СССР в форум Детские отечественные фильмы


-Lexx-piratbit.pw



    Дорогой пользователь! Огромная просьба, поблагодарите релизера, оцените раздачу и оставьте свои комментарий, если Вы скачали Снежная сказка через торрент бесплатно! Внесите свою лепту в развитие PiratBit!
    Комментировать посты могут только пользователи прошедшие не сложную регистрацию
    Показать сообщения:    

    Снежная сказка через торрент
    Скачать бесплатно Снежная сказка
    Снежная сказка скачать торрент
    Снежная сказка смотреть онлайн
    Cкачать фильм Снежная сказка бесплатно
    Снежная сказка скачать торрент в хорошем качестве
    Снежная сказка смотреть онлайн бесплатно в хорошем качестве


    Вы не можете начинать темы
    Вы не можете отвечать на сообщения
    Вы не можете редактировать свои сообщения
    Вы не можете удалять свои сообщения
    Вы не можете голосовать в опросах
    Вы не можете прикреплять файлы к сообщениям
    Вы можете скачивать файлы