Ссылка на приватное зеркало нашего сайта всего за 1$. Внимание количество ограничено!!!

2 сезон

iTunes

iTunes

1

iTunes

iTunes

iTunes

WEBRip

iTunes

30
pack

Вам бонус

ВАЖНО

!!Акция!!

Alien_RageХит недели

RePack

Horizon Zero Dawn

ИГРА 18+

pack

RePack

jed

!!Акция!!

Alien_Rage

RePack

fifa19

RePack

Assassins Creed: Odyssey

RePack

NEED FOR SPEED™ PAYBACK

4 сезон

9 сезон

Бесстыжие 9 сезон

Все сериалы

все сериалы на PB.wtf

RePack

FAR CRY 5
  

Аритмия (Борис Хлебников) [2017, мелодрама, драма, WEB-DL 720p] [iTunes] piratbit.pw

Аритмия через торрент piratbit.pw

Размер: 3.58 GB | Добавлен: 2 года 10 мес. назад | Торрент скачан:560 раз
Скачать  

16-11-2017 07:21 Аритмия Скачать торрент  

АритмияГод выпуска: 2017
Страна: Россия
Жанр: мелодрама, драма
Продолжительность: 01:55:52
Перевод: Русский | iTunes
Субтитры: отсутствуют

Режиссер: Борис Хлебников

rating

В ролях:

Александр Яценко, Ирина Горбачева, Николай Шрайбер, Максим Лагашкин, Альбина Тиханова, Александр Самойленко, Елена Дробышева, Евгений Муравич, Анна Котова, Надежда Маркина

Описание:

Олег — талантливый врач, работает на «скорой», которая мчится от пациента к пациенту. Олег знает: его приезд может изменить всё. Каждый его успех делает мир лучше. Самое важное — там, где он пытается совершить невозможное. А остальное может подождать: семья, карьера, своя жизнь… Что с ней случилось? Пока Олег спасал других, жена отчаялась и решила подать на развод, а в больнице появился новый начальник, который печётся только о статистике и правилах. А Олег всё спешит с вызова на вызов, несётся по улице, чтобы всё изменить. И кто знает, какая задача легче: спасать других или спасти себя?

Качество: WEB-DL 720p
Формат: MKV
Видео кодек: H.264
Аудио кодек: AC3

Видео: MPEG-4 AVC, 4035 Кбит/с, 1280x692
Аудио#1: АС3, 6 ch, 384 Кбит/с
скриншот   скриншот   скриншот   скриншот  

Общее
Уникальный идентификатор : 236251361100762721120345055430718329805 (0xB1BC5B693E07713680506892994913CD)
Полное имя : D:\AP1tm1ya.2O17.O.WEB-Dl.72Op.mkv
Формат : Matroska
Версия формата : Version 2
Размер файла : 3,58 Гбайт
Продолжительность : 1 ч. 55 м.
Общий поток : 4420 Кбит/сек
Дата кодирования : UTC 2017-11-15 19:35:48
Программа кодирования : mkvmerge v8.3.0 ('Over the Horizon') 64bit
Библиотека кодирования : libebml v1.3.1 + libmatroska v1.4.2

Видео
Идентификатор : 1
Формат : AVC
Формат/Информация : Advanced Video Codec
Профиль формата : High@L3.1
Параметр CABAC формата : Нет
Параметр ReFrames формата : 2 кадра
Идентификатор кодека : V_MPEG4/ISO/AVC
Продолжительность : 1 ч. 55 м.
Битрейт : 4035 Кбит/сек
Ширина : 1280 пикселей
Высота : 692 пикселя
Соотношение сторон : 1,85:1
Режим частоты кадров : Постоянный
Частота кадров : 24,000 кадра/сек
Цветовое пространство : YUV
Субдискретизация насыщенности : 4:2:0
Битовая глубина : 8 бит
Тип развёртки : Прогрессивная
Бит/(Пиксели*Кадры) : 0.190
Размер потока : 3,27 Гбайт (91%)
Язык : English
Default : Да
Forced : Нет
Цветовой диапазон : Limited
Основные цвета : BT.709
Характеристики трансфера : BT.709
Коэффициенты матрицы : BT.709

Аудио
Идентификатор : 2
Формат : AC-3
Формат/Информация : Audio Coding 3
Расширение режима : CM (complete main)
Параметр Endianness формата : Big
Идентификатор кодека : A_AC3
Продолжительность : 1 ч. 55 м.
Вид битрейта : Постоянный
Битрейт : 384 Кбит/сек
Каналы : 6 каналов
Расположение каналов : Front: L C R, Side: L R, LFE
Частота : 48,0 КГц
Частота кадров : 31,250 кадров/сек (1536 spf)
Метод сжатия : С потерями
Размер потока : 318 Мбайт (9%)
Язык : Russian
Default : Да
Forced : Нет

Меню
00:00:00.000 : en:Глава 1
00:08:32.000 : en:Глава 2
00:14:01.416 : en:Глава 3
00:20:55.541 : en:Глава 4
00:26:38.999 : en:Глава 5
00:32:19.999 : en:Глава 6
00:38:51.957 : en:Глава 7
00:45:15.248 : en:Глава 8
00:52:48.831 : en:Глава 9
00:59:20.414 : en:Глава 10
01:05:48.247 : en:Глава 11
01:11:01.413 : en:Глава 12
01:18:18.413 : en:Глава 13
01:25:36.038 : en:Глава 14
01:33:46.913 : en:Глава 15
01:40:13.996 : en:Глава 16
01:45:58.246 : en:Глава 17

piratbit.pw



Скачать Аритмия через торрент http://i97.fastpic.ru/big/2017/1116/7d/dc7d70a7b17137a7282274f04b21447d.jpg Скачать фильм Аритмия через торрент бесплантно в хорошем качестве Описание: Олег — талантливый врач, работает на «скорой», которая мчится от пациента к пациенту. Олег знает: его приезд может изменить всё. ... 9.9 10 13
Торрент: Зарегистрирован [2017-11-16 07:21] · скачан: 560 раз
Статус: √ проверено
Размер: 3.58 GB
Как cкачать? Как скачать Аритмия через торрент | qTorrent

% Раздел Тема Автор DL S | L
Наши новые фильмы 2017 [ 1.92 GB ] Аритмия [2017 Мело WEB-DLRip-AVC] - ExKinoRay Enigma2010 Скачать
1 | 0
Наши новые фильмы 2017 [ 701 MB ] Аритмия [2017 WEB-DLRip] Sherif Скачать
1 | 0
Наши новые фильмы 2017 [ 1.46 GB ] Аритмия [2017 WEB-DLRip] bober100 Скачать
1 | 0
Наши новые фильмы 2017 [ 2.05 GB ] Аритмия [2017 WEB-DLRip] bober100 Скачать
2 | 0
Наши фильмы (HD, WEB-DL 720p, 1080p) [ 4.48 GB ] Аритмия [2017 WEB-DL 1080p] bober100 Скачать
2 | 0

28-11-2019 20:33  

Отключить всю рекламу на сайте

    Дорогой пользователь! Огромная просьба, поблагодарите релизера, оцените раздачу и оставьте свои комментарий, если Вы скачали Аритмия через торрент бесплатно! Внесите свою лепту в развитие PiratBit!
    Комментировать посты могут только пользователи прошедшие не сложную регистрацию
    Показать сообщения:    

    Аритмия через торрент
    Скачать бесплатно Аритмия
    Аритмия скачать торрент
    Аритмия смотреть онлайн
    Cкачать фильм Аритмия бесплатно
    Аритмия скачать торрент в хорошем качестве
    Аритмия смотреть онлайн бесплатно в хорошем качестве


    Вы не можете начинать темы
    Вы не можете отвечать на сообщения
    Вы не можете редактировать свои сообщения
    Вы не можете удалять свои сообщения
    Вы не можете голосовать в опросах
    Вы не можете прикреплять файлы к сообщениям
    Вы можете скачивать файлы