Ссылка на приватное зеркало всего за 1$. Внимание количество ограничено!!!

iTunes

iTunes

iTunes

1

iTunes

iTunes

iTunes

iTunes

iTunes

30
pack

Новость дня

ВАЖНО

!!Акция!!

Alien_RageХит недели

RePack

Resident Evil 21

ИГРА 18+

pack

RePack

jed

!!Акция!!

Alien_Rage

RePack

fifa19

RePack

Assassins Creed: Odyssey

RePack

NEED FOR SPEED™ PAYBACK

4 сезон

9 сезон

Бесстыжие 9 сезон

Все сериалы

все сериалы на PB.wtf

RePack

FAR CRY 5
  

Варкрафт / Warcraft (Дункан Джонс ) [2016, фэнтези, боевик, приключения, UHD BDRemux 2160p] DUB + AVO piratbit.pw

Варкрафт через торрент piratbit.pw

Размер: 50.57 GB | Добавлен: 2 года 4 мес. назад | Торрент скачан:209 раз
Скачать  

15-11-2017 08:43 Варкрафт Скачать торрент  

Варкрафт / Warcraft

Год выпуска: 2016
Страна: Китай, Канада, Япония, США
Жанр: фэнтези, боевик, приключения
Продолжительность: 02:03:08
Перевод: Дублированный, Авторский одноголосый (закадровый)
Режиссер: Дункан Джонс
В ролях:

Трэвис Фиммел (Anduin Lothar), Пола Пэттон (Garona), Бен Фостер (Medivh), Доминик Купер (Llane Wrynn), Тоби Кеббелл (Durotan), Бен Шнетцер (Khadgar), Роберт Казински (Orgrim), Клэнси Браун (Blackhand), Дэниэл Ву (Gul'dan), Рут Негга (Lady Taria), Анна Галвин (Draka), Каллум Кит Ренни (Moroes)
Описание:
Веками магия и неприступные стены защищали людей от любых напастей. Но древнее зло, побежденное и забытое тысячелетия назад, пробудилось.
Рейтинг:

MPAA: PG-13 - Детям до 13 лет просмотр не желателен
Качество: UHD BDRemux 2160p
Формат: MKV
Видео: MPEG-H HEVC HDR Video, 3840x2160, 46.8 Mbit/s, 23.976 fps
Аудио #01: 48 kHz, AC3, 5.1, 640 Kbps | Дублированный, Лицензия |RUS|
Аудио #02: 48 kHz, DTS-HD MA, 7.1, 5146 Kbps | Авторский одноголосый (закадровый) Д. Есарев |RUS|
Аудио #03: 48 kHz, AC3, 5.1, 640 Kbps | Авторский одноголосый (закадровый) Д. Есарев |RUS|
Аудио #04: 48 kHz, TrueHD, 7.1, 4834 kbps | Оригинал|
Аудио #05: 48 kHz, AC3, 5.1, 640 Kbps | Оригинал|
Субтитры: Русские (2 x forced, 3 x full), латышские, литовские, эстонские, украинские, английские (3 x full, 3 x SDH)
General
Unique ID : 208672017710593671289516673378189330185 (0x9CFCC4CC914D1CD7AA88B15152244709)
Complete name : G:VideoSSDWarcraft.2016.BDREMUX.2160p.4K.UltraHD.HEVC.HDR.ExKinoRay.mkv
Format : Matroska
Format version : Version 4 / Version 2
File size : 50.6 GiB
Duration : 2 h 3 min
Overall bit rate mode : Variable
Overall bit rate : 58.8 Mb/s
Movie name : Release by ExKinoRay
Encoded date : UTC 2017-11-15 08:03:56
Writing application : mkvmerge v17.0.0 ('Be Ur Friend') 64-bit
Writing library : libebml v1.3.5 + libmatroska v1.4.8
Cover : Yes
Attachments : cover.jpg

Video
ID : 1
Format : HEVC
Format/Info : High Efficiency Video Coding
Format profile : Main 10@L5.1@High
Codec ID : V_MPEGH/ISO/HEVC
Duration : 2 h 3 min
Bit rate : 46.8 Mb/s
Width : 3 840 pixels
Height : 2 160 pixels
Display aspect ratio : 16:9
Frame rate mode : Constant
Frame rate : 23.976 (24000/1001) FPS
Color space : YUV
Chroma subsampling : 4:2:0 (Type 2)
Bit depth : 10 bits
Bits/(Pixel*Frame) : 0.235
Stream size : 40.3 GiB (80%)
Language : English
Default : Yes
Forced : No
Color range : Limited
Color primaries : BT.2020
Transfer characteristics : PQ
Matrix coefficients : BT.2020 non-constant
Mastering display color pri : R: x=0.680000 y=0.320000, G: x=0.265000 y=0.690000, B: x=0.150000 y=0.060000, White point: x=0.312700 y=0.329000
Mastering display luminance : min: 0.0000 cd/m2, max: 1000.0000 cd/m2

Audio #1
ID : 2
Format : AC-3
Format/Info : Audio Coding 3
Format settings, Endianness : Big
Codec ID : A_AC3
Duration : 2 h 3 min
Bit rate mode : Constant
Bit rate : 640 kb/s
Channel(s) : 6 channels
Channel positions : Front: L C R, Side: L R, LFE
Sampling rate : 48.0 kHz
Frame rate : 31.250 FPS (1536 SPF)
Bit depth : 16 bits
Compression mode : Lossy
Stream size : 564 MiB (1%)
Title : Dub [License]
Language : Russian
Service kind : Complete Main
Default : Yes
Forced : No

Audio #2
ID : 3
Format : DTS
Format/Info : Digital Theater Systems
Format profile : MA / Core
Mode : 16
Format settings, Endianness : Big
Codec ID : A_DTS
Duration : 2 h 3 min
Bit rate mode : Variable / Constant
Bit rate : 5 146 kb/s / 1 509 kb/s
Channel(s) : 8 channels / 6 channels
Channel positions : Front: L C R, Side: L R, Back: L R, LFE / Front: L C R, Side: L R, LFE
Sampling rate : 48.0 kHz
Frame rate : 93.750 FPS (512 SPF)
Bit depth : 24 bits
Compression mode : Lossless / Lossy
Stream size : 4.43 GiB (9%)
Title : AVO [Yesarev]
Language : Russian
Default : No
Forced : No

Audio #3
ID : 4
Format : AC-3
Format/Info : Audio Coding 3
Format settings, Endianness : Big
Codec ID : A_AC3
Duration : 2 h 3 min
Bit rate mode : Constant
Bit rate : 640 kb/s
Channel(s) : 6 channels
Channel positions : Front: L C R, Side: L R, LFE
Sampling rate : 48.0 kHz
Frame rate : 31.250 FPS (1536 SPF)
Bit depth : 16 bits
Compression mode : Lossy
Stream size : 564 MiB (1%)
Title : AVO [Yesarev]
Language : Russian
Service kind : Complete Main
Default : No
Forced : No

Audio #4
ID : 5
Format : TrueHD
Format profile : TrueHD+Atmos / TrueHD
Codec ID : A_TRUEHD
Duration : 2 h 3 min
Bit rate mode : Variable
Bit rate : 4 834 kb/s
Maximum bit rate : 7 893 kb/s
Channel(s) : Object Based / 8 channels
Channel positions : Object Based / Front: L C R, Side: L R, Back: L R, LFE
Sampling rate : / 48.0 kHz
Frame rate : 1 200.000 FPS (40 SPF)
Compression mode : Lossless
Stream size : 4.16 GiB (8%)
Title : Original
Language : English
Default : No
Forced : No

Audio #5
ID : 6
Format : AC-3
Format/Info : Audio Coding 3
Format settings, Endianness : Big
Codec ID : A_AC3
Duration : 2 h 3 min
Bit rate mode : Constant
Bit rate : 640 kb/s
Channel(s) : 6 channels
Channel positions : Front: L C R, Side: L R, LFE
Sampling rate : 48.0 kHz
Frame rate : 31.250 FPS (1536 SPF)
Bit depth : 16 bits
Compression mode : Lossy
Stream size : 564 MiB (1%)
Language : English
Service kind : Complete Main
Default : No
Forced : No

Text #1
ID : 7
Format : UTF-8
Codec ID : S_TEXT/UTF8
Codec ID/Info : UTF-8 Plain Text
Duration : 1 h 43 min
Bit rate : 0 b/s
Count of elements : 9
Stream size : 305 Bytes (0%)
Title : Forced BD
Language : Russian
Default : Yes
Forced : No

Text #2
ID : 8
Format : UTF-8
Codec ID : S_TEXT/UTF8
Codec ID/Info : UTF-8 Plain Text
Duration : 1 h 52 min
Bit rate : 60 b/s
Count of elements : 1216
Stream size : 49.7 KiB (0%)
Title : Full BD
Language : Russian
Default : No
Forced : No

Text #3
ID : 9
Format : UTF-8
Codec ID : S_TEXT/UTF8
Codec ID/Info : UTF-8 Plain Text
Duration : 1 h 58 min
Bit rate : 0 b/s
Count of elements : 17
Stream size : 531 Bytes (0%)
Title : Forced MBB
Language : Russian
Default : No
Forced : No

Text #4
ID : 10
Format : UTF-8
Codec ID : S_TEXT/UTF8
Codec ID/Info : UTF-8 Plain Text
Duration : 2 h 1 min
Bit rate : 56 b/s
Count of elements : 1378
Stream size : 50.3 KiB (0%)
Title : Full MBB
Language : Russian
Default : No
Forced : No

Text #5
ID : 11
Format : UTF-8
Codec ID : S_TEXT/UTF8
Codec ID/Info : UTF-8 Plain Text
Duration : 1 h 55 min
Bit rate : 57 b/s
Count of elements : 1054
Stream size : 48.4 KiB (0%)
Title : Full Nunegsdli
Language : Russian
Default : No
Forced : No

Text #6
ID : 12
Format : UTF-8
Codec ID : S_TEXT/UTF8
Codec ID/Info : UTF-8 Plain Text
Duration : 2 h 1 min
Bit rate : 33 b/s
Count of elements : 1248
Stream size : 29.7 KiB (0%)
Title : Full
Language : Latvian
Default : No
Forced : No

Text #7
ID : 13
Format : UTF-8
Codec ID : S_TEXT/UTF8
Codec ID/Info : UTF-8 Plain Text
Duration : 2 h 1 min
Bit rate : 35 b/s
Count of elements : 1204
Stream size : 31.4 KiB (0%)
Title : Full
Language : Lithuanian
Default : No
Forced : No

Text #8
ID : 14
Format : UTF-8
Codec ID : S_TEXT/UTF8
Codec ID/Info : UTF-8 Plain Text
Duration : 2 h 1 min
Bit rate : 30 b/s
Count of elements : 1220
Stream size : 27.0 KiB (0%)
Title : Full
Language : Estonian
Default : No
Forced : No

Text #9
ID : 15
Format : UTF-8
Codec ID : S_TEXT/UTF8
Codec ID/Info : UTF-8 Plain Text
Duration : 2 h 1 min
Bit rate : 43 b/s
Count of elements : 1209
Stream size : 38.5 KiB (0%)
Title : Full
Language : Ukrainian
Default : No
Forced : No

Text #10
ID : 16
Format : UTF-8
Codec ID : S_TEXT/UTF8
Codec ID/Info : UTF-8 Plain Text
Duration : 1 h 52 min
Bit rate : 35 b/s
Count of elements : 1074
Stream size : 29.4 KiB (0%)
Title : Full
Language : English
Default : No
Forced : No

Text #11
ID : 17
Format : UTF-8
Codec ID : S_TEXT/UTF8
Codec ID/Info : UTF-8 Plain Text
Duration : 2 h 1 min
Bit rate : 33 b/s
Count of elements : 1328
Stream size : 30.0 KiB (0%)
Title : Full1
Language : English
Default : No
Forced : No

Text #12
ID : 18
Format : UTF-8
Codec ID : S_TEXT/UTF8
Codec ID/Info : UTF-8 Plain Text
Duration : 1 h 52 min
Bit rate : 36 b/s
Count of elements : 1234
Stream size : 30.0 KiB (0%)
Title : Full2
Language : English
Default : No
Forced : No

Text #13
ID : 19
Format : UTF-8
Codec ID : S_TEXT/UTF8
Codec ID/Info : UTF-8 Plain Text
Duration : 1 h 53 min
Bit rate : 41 b/s
Count of elements : 1345
Stream size : 34.6 KiB (0%)
Title : SDH
Language : English
Default : No
Forced : No

Text #14
ID : 20
Format : UTF-8
Codec ID : S_TEXT/UTF8
Codec ID/Info : UTF-8 Plain Text
Duration : 2 h 2 min
Bit rate : 38 b/s
Count of elements : 1487
Stream size : 34.9 KiB (0%)
Title : SDH1
Language : English
Default : No
Forced : No

Text #15
ID : 21
Format : UTF-8
Codec ID : S_TEXT/UTF8
Codec ID/Info : UTF-8 Plain Text
Duration : 1 h 53 min
Bit rate : 41 b/s
Count of elements : 1393
Stream size : 34.8 KiB (0%)
Title : SDH2
Language : English
Default : No
Forced : No

Menu
00:00:00.000 : en:00:00:00.000
00:09:26.483 : en:00:09:26.483
00:15:49.407 : en:00:15:49.407
00:22:36.146 : en:00:22:36.146
00:29:16.171 : en:00:29:16.171
00:38:43.321 : en:00:38:43.321
00:46:44.093 : en:00:46:44.093
00:53:02.679 : en:00:53:02.679
00:56:17.332 : en:00:56:17.332
01:02:43.927 : en:01:02:43.927
01:07:48.314 : en:01:07:48.314
01:12:24.549 : en:01:12:24.549
01:17:13.045 : en:01:17:13.045
01:22:45.669 : en:01:22:45.669
01:26:32.145 : en:01:26:32.145
01:32:29.669 : en:01:32:29.669
01:40:25.102 : en:01:40:25.102
01:47:38.118 : en:01:47:38.118
01:51:12.833 : en:01:51:12.833
01:53:58.832 : en:01:53:58.832
piratbit.pw



Скачать Варкрафт через торрент http://i97.fastpic.ru/big/2017/1115/13/ea24b59260a32681f4b138ea30a2db13.png Скачать фильм Варкрафт через торрент бесплантно в хорошем качестве Описание: Веками магия и неприступные стены защищали людей от любых напастей. Но древнее зло, побежденное и забытое тысячелетия назад, ... 8.7 10 9
Торрент: Зарегистрирован [2017-11-15 08:43] · скачан: 209 раз
Статус: √ проверено
Размер: 50.57 GB
Как cкачать? Как скачать Варкрафт через торрент | qTorrent

% Раздел Тема Автор DL S | L
Фильмы (HD 720p, 1080p) (48-60 fps) [ 16.46 GB ] Варкрафт / Warcraft [2016 BDRip 1080p 60fps Dub MVO AVO VO Original] Tiberiumsun69 Скачать
2 | 0
Ultra HD (UHD: 2K, 4K, 8K) — видео сверхвысокой чёткости [ 70.4 GB ] Варкрафт / Warcraft [2016 UHD BDRemux 2160p] DUB + MVO + 4xAVO sheker187 Скачать
1 | 0
Фильмы [HD 720p, 1080p] (Хороший звук DUB, MVO) [ 13.93 GB ] Варкрафт / Warcraft [2016 BDRip 1080p от NNNB] DUB + MVO + AVO + Original + Sub _denis_100 Скачать
1 | 0

28-11-2019 20:33  

Отключить всю рекламу на сайте

    Дорогой пользователь! Огромная просьба, поблагодарите релизера, оцените раздачу и оставьте свои комментарий, если Вы скачали Варкрафт через торрент бесплатно! Внесите свою лепту в развитие PiratBit!
    Комментировать посты могут только пользователи прошедшие не сложную регистрацию
    Показать сообщения:    

    Варкрафт через торрент
    Скачать бесплатно Варкрафт
    Варкрафт скачать торрент
    Варкрафт смотреть онлайн
    Cкачать фильм Варкрафт бесплатно
    Варкрафт скачать торрент в хорошем качестве
    Варкрафт смотреть онлайн бесплатно в хорошем качестве


    Вы не можете начинать темы
    Вы не можете отвечать на сообщения
    Вы не можете редактировать свои сообщения
    Вы не можете удалять свои сообщения
    Вы не можете голосовать в опросах
    Вы не можете прикреплять файлы к сообщениям
    Вы можете скачивать файлы