1 сезон

1 сезон

iTunes

1

КиноПоиск HD

Кинопоиск HD

iTunes

13

1 сезон

RePack

30

Новинка

ВАЖНО

ИГРА 18+

pack

RePack

MK11
pack

Легкие деньги

RePack

jed

RePack

fifa19

RePack

RDR2

RePack

NEED FOR SPEED™ PAYBACK

4 сезон

9 сезон

Бесстыжие 9 сезон

Все сериалы

все сериалы на PB.wtf

RePack

FAR CRY 5
  
Magnet ссылка

Хэллоуин 5 / Halloween 5: The Revenge of Michael Myers (Доминик Отенен-Жирар) [1989 г., Ужасы, Триллер, BDRip 720p, Авторский (одноголосый)] piratbit.pw

Хэллоуин 5 через торрент piratbit.pw

Размер: 4.46 GB | Добавлен: 3 года 1 мес. назад | Торрент скачан:4 раза
Скачать  

13-11-2017 18:24 Хэллоуин 5 Скачать торрент  

Хэллоуин 5 / Halloween 5: The Revenge of Michael MyersГод выпуска: 1989
Страна: США
Жанр: Ужасы, Триллер
Продолжительность: 01:37:04
Перевод: Авторский (одноголосый) (В. Дохалов, Дольский)
Субтитры: отсутствуют

Режиссер: Доминик Отенен-Жирар

Премьера в мире: 13 октября 1989

rating

В ролях: Дональд Плезенс, Даниэль Харрис, Элли Корнелл, Бо Старр, Джеффри Лэндмэн, Тамара Глинн, Джонатан Чейпин, Мэттью Уолкер, Венди Каплан, Бетти Карвальо

Описание: Прошёл год. А это означает, что вновь близится Хэллоуин и снова людям предстоит одевать страшные маски. Джейми, как мы помним, определили в хэддонфилдскую психушку, где она имела астральную связь с маньяком и видела все его действия, а также могла предсказать опасность для людей, находящихся рядом с ним. На дворе Хэллоуин, и Джейми стала проявлять признаки беспокойства, то и дело попадая в состояние трясучки. Девочка права - Майкл вернулся вновь. Вернулся, чтобы снова устроить кровавую резню...

Качество: BDRip 720p
Формат: MKV
Видео кодек: H.264
Аудио кодек: AC3
Видео: AVC/H.264, 1280х696 (1,85:1), ~6193 Kbps, 0.290 bit/pixel
Аудио#1: Русский: AC3, 2 ch, 192 kbps - Одноголосый закадровый (В. Дохалов)
Аудио#2: Русский: AC3, 2 ch, 192 kbps - Одноголосый закадровый (Дольский)
Релиз от: winchester00100010
Общее
Уникальный идентификатор : 199640718202704921896419086772633554862 (0x9631675AE2BFD6EC8D3AC9D420834FAE)
Полное имя : D:\Торрент файлы раздач вместе с фильмами\Halloween.5.The.Revenge.Of.Michael.Myers.(1989).BDRip.720р.mkv
Формат : Matroska
Версия формата : Version 2
Размер файла : 4,46 Гбайт
Продолжительность : 1 ч. 37 м.
Общий поток : 6576 Кбит/сек
Дата кодирования : UTC 2017-05-22 12:21:26
Программа кодирования : mkvmerge v5.8.0 ('No Sleep / Pillow') built on Sep 2 2012 15:37:04
Библиотека кодирования : libebml v1.2.3 + libmatroska v1.3.0

Видео
Идентификатор : 1
Формат : AVC
Формат/Информация : Advanced Video Codec
Профиль формата : High@L4.1
Настройки формата : CABAC / 9 Ref Frames
Параметр CABAC формата : Да
Параметр RefFrames формата : 9 кадров
Идентификатор кодека : V_MPEG4/ISO/AVC
Продолжительность : 1 ч. 37 м.
Битрейт : 6193 Кбит/сек
Ширина : 1280 пикселей
Высота : 696 пикселей
Соотношение сторон : 1,85:1
Режим частоты кадров : Постоянный
Частота кадров : 23,976 (24000/1001) кадра/сек
Цветовое пространство : YUV
Субдискретизация насыщенности : 4:2:0
Битовая глубина : 8 бит
Тип развёртки : Прогрессивная
Бит/(Пиксели*Кадры) : 0.290
Размер потока : 4,11 Гбайт (92%)
Библиотека кодирования : x264 core 146 r2538 121396c
Настройки программы : cabac=1 / ref=9 / deblock=1:-3:-3 / analyse=0x3:0x113 / me=umh / subme=9 / psy=1 / psy_rd=1.00:0.00 / mixed_ref=1 / me_range=24 / chroma_me=1 / trellis=2 / 8x8dct=1 / cqm=0 / deadzone=21,11 / fast_pskip=0 / chroma_qp_offset=-2 / threads=12 / lookahead_threads=2 / sliced_threads=0 / nr=0 / decimate=0 / interlaced=0 / bluray_compat=0 / constrained_intra=0 / bframes=6 / b_pyramid=2 / b_adapt=2 / b_bias=0 / direct=3 / weightb=1 / open_gop=0 / weightp=2 / keyint=240 / keyint_min=23 / scenecut=40 / intra_refresh=0 / rc_lookahead=40 / rc=2pass / mbtree=0 / bitrate=6193 / ratetol=1.0 / qcomp=0.60 / qpmin=0 / qpmax=69 / qpstep=4 / cplxblur=20.0 / qblur=0.5 / vbv_maxrate=14000 / vbv_bufsize=14000 / nal_hrd=none / filler=0 / ip_ratio=1.40 / pb_ratio=1.30 / aq=1:0.80
Default : Да
Forced : Нет

Аудио #1
Идентификатор : 2
Формат : AC-3
Формат/Информация : Audio Coding 3
Идентификатор кодека : A_AC3
Продолжительность : 1 ч. 37 м.
Вид битрейта : Постоянный
Битрейт : 192 Кбит/сек
Каналы : 2 канала
Расположение каналов : Front: L R
Частота : 48,0 КГц
Частота кадров : 31,250 кадров/сек (1536 SPF)
Битовая глубина : 16 бит
Метод сжатия : С потерями
Размер потока : 133 Мбайт (3%)
Заголовок : Одноголосый закадровый (Дохалов)
Язык : Russian
ServiceKind/String : Complete Main
Default : Да
Forced : Нет

Аудио #2
Идентификатор : 3
Формат : AC-3
Формат/Информация : Audio Coding 3
Идентификатор кодека : A_AC3
Продолжительность : 1 ч. 37 м.
Вид битрейта : Постоянный
Битрейт : 192 Кбит/сек
Каналы : 2 канала
Расположение каналов : Front: L R
Частота : 48,0 КГц
Частота кадров : 31,250 кадров/сек (1536 SPF)
Битовая глубина : 16 бит
Метод сжатия : С потерями
Размер потока : 133 Мбайт (3%)
Заголовок : Одноголосый закадровый (Дольский)
Язык : Russian
ServiceKind/String : Complete Main
Default : Нет
Forced : Нет

piratbit.pw



Скачать Хэллоуин 5 через торрент https://pic1.kartinco.top/images/11/hgpmj.jpg Скачать фильм Хэллоуин 5 через торрент бесплантно в хорошем качестве Описание: Прошёл год. А это означает, что вновь близится Хэллоуин и снова людям предстоит одевать страшные маски. Джейми, как мы помним, ... 8.3 10 4
Торрент: Зарегистрирован [2018-02-27 00:05] · скачан: 4 раз
Статус: √ проверено
Размер: 4.46 GB
Как cкачать? Как скачать Хэллоуин 5 через торрент | UTorrent

% Раздел Тема Автор DL S | L
Фильмы с авторской озвучкой [ 7.75 GB ] Хэллоуин 5 / Halloween 5: The Revenge of Michael Myers [1989 BDRip 1080p Авторский ] winchester00100010 Скачать
1 | 0
Фильмы с авторской озвучкой [ 2.16 GB ] Хэллоуин 5 / Halloween 5: The Revenge of Michael Myers [1989 BDRip-AVC Авторский ] winchester00100010 Скачать
1 | 0


Последний раз редактировалось: winchester00100010 (2019-05-05 12:06), всего редактировалось 4 раз(а)

28-11-2019 20:33  

Отключить всю рекламу на сайте

13-11-2017 18:57 Хэллоуин 5 Скачать торрент  

Топик был перенесен из форума Фильмы [HD 720p, 1080p] (Хороший звук DUB, MVO) в форум Фильмы с авторской озвучкой


-Lexx-piratbit.pw



10-12-2017 19:56 Хэллоуин 5 Скачать торрент  

Перезалил торрент файлик, так как человек писал вконтакте мне, что он не может скачать и не качается раздача, перекачайте торрентpiratbit.pw



18-03-2018 15:12 Хэллоуин 5 Скачать торрент  

Всем приятного просмотра)piratbit.pw



    Дорогой пользователь! Огромная просьба, поблагодарите релизера, оцените раздачу и оставьте свои комментарий, если Вы скачали Хэллоуин 5 через торрент бесплатно! Внесите свою лепту в развитие PiratBit!
    Комментировать посты могут только пользователи прошедшие не сложную регистрацию
    Показать сообщения:    

    Хэллоуин 5 через торрент
    Скачать бесплатно Хэллоуин 5
    Хэллоуин 5 скачать торрент
    Хэллоуин 5 смотреть онлайн
    Cкачать фильм Хэллоуин 5 бесплатно
    Хэллоуин 5 скачать торрент в хорошем качестве
    Хэллоуин 5 смотреть онлайн бесплатно в хорошем качестве


    Вы не можете начинать темы
    Вы не можете отвечать на сообщения
    Вы не можете редактировать свои сообщения
    Вы не можете удалять свои сообщения
    Вы не можете голосовать в опросах
    Вы не можете прикреплять файлы к сообщениям
    Вы можете скачивать файлы