Marvel's Avengers Deluxe Edition (супер цена) 159р. Внимание количество ограничено!!!

2 сезон

iTunes

iTunes

1

iTunes

iTunes

iTunes

WEBRip

iTunes

30
pack

Новость дня

ВАЖНО

!!Акция!!

Alien_RageХит недели

RePack

Horizon Zero Dawn

ИГРА 18+

pack

RePack

jed

!!Акция!!

Alien_Rage

RePack

fifa19

RePack

Assassins Creed: Odyssey

RePack

NEED FOR SPEED™ PAYBACK

4 сезон

9 сезон

Бесстыжие 9 сезон

Все сериалы

все сериалы на PB.wtf

RePack

FAR CRY 5
  

Крым (Алексей Пиманов) [2017, драма, боевик, WEB-DL 1080p] [iTunes] piratbit.pw

Крым через торрент piratbit.pw

Раздают: 1 [ 0 KB/s ]
Размер: 3.35 GB | Добавлен: 2 года 10 мес. назад | Торрент скачан:1713 раз
Скачать  

13-11-2017 07:47 Крым Скачать торрент  

КрымГод выпуска: 2017
Страна: Россия
Жанр: драма, боевик
Продолжительность: 01:36:18
Перевод: Оригинал | iTunes
Субтитры: отсутствуют

Режиссер: Алексей Пиманов

rating

В ролях:

Роман Курцын, Евгения Лапова, Павел Крайнов, Павел Трубинер, Борис Щербаков, Елена Котельникова, Геннадий Яковлев, Алексей Комашко, Никита Зверев, Игорь Буяновер

Описание:

История о любви, вере и чести, о силе духа и настоящей дружбе на фоне реальных событий крымской весны 2014 года.

Судьба свела их в Крыму близ древнего города Мангуп-Кале. Это была любовь с первого взгляда... В непростые дни исторических перемен они должны сохранить свою жизнь и любовь.

Качество: WEB-DL 1080p
Формат: MKV
Видео кодек: H.264
Аудио кодек: AC3

Видео: MPEG-4 AVC, 4596 Кбит/с, 1920x804
Аудио: Русский (AC3, 6 ch, 384 Кбит/с)
скриншот   скриншот   скриншот  

Общее
Уникальный идентификатор : 188462372949069896996794259677501599283 (0x8DC88861FEC8CA46B43A407FCEF62E33)
Полное имя : D:\торреннты\Krim.2O17.O.WEB-DL.1O8Op.mkv
Формат : Matroska
Версия формата : Version 2
Размер файла : 3,35 Гбайт
Продолжительность : 1 ч. 36 м.
Общий поток : 4982 Кбит/сек
Дата кодирования : UTC 2017-11-12 21:49:50
Программа кодирования : mkvmerge v8.3.0 ('Over the Horizon') 64bit
Библиотека кодирования : libebml v1.3.1 + libmatroska v1.4.2

Видео
Идентификатор : 1
Формат : AVC
Формат/Информация : Advanced Video Codec
Профиль формата : High@L4
Параметр CABAC формата : Да
Параметр ReFrames формата : 5 кадров
Идентификатор кодека : V_MPEG4/ISO/AVC
Продолжительность : 1 ч. 36 м.
Битрейт : 4596 Кбит/сек
Ширина : 1920 пикселей
Высота : 804 пикселя
Соотношение сторон : 2,40:1
Режим частоты кадров : Постоянный
Частота кадров : 25,000 кадров/сек
Цветовое пространство : YUV
Субдискретизация насыщенности : 4:2:0
Битовая глубина : 8 бит
Тип развёртки : Прогрессивная
Бит/(Пиксели*Кадры) : 0.119
Размер потока : 3,09 Гбайт (92%)
Язык : English
Default : Да
Forced : Нет
Цветовой диапазон : Limited
Основные цвета : BT.709
Характеристики трансфера : BT.709
Коэффициенты матрицы : BT.709

Аудио
Идентификатор : 2
Формат : AC-3
Формат/Информация : Audio Coding 3
Расширение режима : CM (complete main)
Параметр Endianness формата : Big
Идентификатор кодека : A_AC3
Продолжительность : 1 ч. 36 м.
Вид битрейта : Постоянный
Битрейт : 384 Кбит/сек
Каналы : 6 каналов
Расположение каналов : Front: L C R, Side: L R, LFE
Частота : 48,0 КГц
Частота кадров : 31,250 кадров/сек (1536 spf)
Метод сжатия : С потерями
Размер потока : 264 Мбайт (8%)
Язык : Russian
Default : Да
Forced : Нет

Меню
00:00:00.000 : en:Глава 1
00:07:22.720 : en:Глава 2
00:13:24.440 : en:Глава 3
00:19:32.760 : en:Глава 4
00:24:40.960 : en:Глава 5
00:30:49.600 : en:Глава 6
00:37:24.080 : en:Глава 7
00:44:02.200 : en:Глава 8
00:51:59.640 : en:Глава 9
00:56:57.280 : en:Глава 10
01:03:27.040 : en:Глава 11
01:08:43.960 : en:Глава 12
01:14:59.320 : en:Глава 13
01:19:54.080 : en:Глава 14
01:27:27.280 : en:Глава 15

piratbit.pw



Скачать Крым через торрент http://pic1.kartinco.top/images/11/witcv.jpg Скачать фильм Крым через торрент бесплантно в хорошем качестве Описание: История о любви, вере и чести, о силе духа и настоящей дружбе на фоне реальных событий крымской весны 2014 года.Судьба свела их в ... 8.2 10 65
Info! Золотая раздача, скачанное не засчитывается.
Торрент: Зарегистрирован [2017-11-13 07:47] · скачан: 1 713 раз
Статус: √ проверено
Размер: 3.35 GB
Как cкачать? Как скачать Крым через торрент | qTorrent

% Раздел Тема Автор DL S | L
Наши сериалы [ 1.74 GB ] Диверсант. Крым / Сезон: 3 / Серии: 1-4 из 4 [2020 военный HDTVRip-AVC] sokol_ok Скачать
23 | 0
Наши сериалы [ 2.72 GB ] Диверсант. Крым / Сезон: 3 / Серии: 1-4 из 4 [2020 Военный SATRip] bober100 Скачать
1 | 0
Наши сериалы [ 3.39 GB ] Диверсант. Крым / Сезон: 3 / Серии: 1-4 из 4 [2020 военный HDTVRip-AVC] sokol_ok Скачать
12 | 0
Наши сериалы [ 5.28 GB ] Диверсант. Крым / Сезон: 3 / Серии: 1-4 из 4 [2020 Военный HDTVRip 720p] bober100 Скачать
2 | 0
Наши сериалы [ 3.85 GB ] Диверсант. Крым / Серии: 1-4 из 4 [2020военный HDTVRip-AVC] aleksan55 Скачать
2 | 0
Наши сериалы [ 3.14 GB ] Диверсант. Крым / Сезон: 3 / Серии: 1-4 из 4 [2020 Военный HDTVRip-AVC] bober100 Скачать
2 | 0
Наши сериалы [ 11.4 GB ] Диверсант. Крым / Сезон: 3 / Серии: 1-4 из 4 [2020 Военный HDTV 1080i] bober100 Скачать
6 | 1

28-11-2019 20:33  

Отключить всю рекламу на сайте

    Дорогой пользователь! Огромная просьба, поблагодарите релизера, оцените раздачу и оставьте свои комментарий, если Вы скачали Крым через торрент бесплатно! Внесите свою лепту в развитие PiratBit!
    Комментировать посты могут только пользователи прошедшие не сложную регистрацию
    Показать сообщения:    

    Крым через торрент
    Скачать бесплатно Крым
    Крым скачать торрент
    Крым смотреть онлайн
    Cкачать фильм Крым бесплатно
    Крым скачать торрент в хорошем качестве
    Крым смотреть онлайн бесплатно в хорошем качестве


    Вы не можете начинать темы
    Вы не можете отвечать на сообщения
    Вы не можете редактировать свои сообщения
    Вы не можете удалять свои сообщения
    Вы не можете голосовать в опросах
    Вы не можете прикреплять файлы к сообщениям
    Вы можете скачивать файлы