Ссылка на приватное зеркало всего за 1$. Внимание количество ограничено!!!

iTunes

iTunes

iTunes

1

iTunes

iTunes

iTunes

iTunes

iTunes

30
pack

Новость дня

ВАЖНО

!!Акция!!

Alien_RageХит недели

RePack

Resident Evil 21

ИГРА 18+

pack

RePack

jed

!!Акция!!

Alien_Rage

RePack

fifa19

RePack

Assassins Creed: Odyssey

RePack

NEED FOR SPEED™ PAYBACK

4 сезон

9 сезон

Бесстыжие 9 сезон

Все сериалы

все сериалы на PB.wtf

RePack

FAR CRY 5
  

На пятьдесят оттенков темнее / Fifty Shades Darker (Джеймс Фоули) [2017, Драма, мелодрама, UHD BDRemux 2160p] DUB [Расширенная версия] [Лицензия] piratbit.pw

На пятьдесят оттенков темнее через торрент piratbit.pw

Размер: 40.92 GB | Добавлен: 2 года 4 мес. назад | Торрент скачан:98 раз
Скачать  

10-11-2017 09:38 На пятьдесят оттенков темнее Скачать торрент  

На пятьдесят оттенков темнее /
Fifty Shades Darker

| Расширенная версия |
Год выпуска: 2017
Страна: США
Жанр: Драма, мелодрама
Продолжительность: 02:11:29
Перевод: Дублированный | Лицензия
Субтитры: Русские (full), английские (full)

Режиссер: Джеймс Фоули

rating

В ролях:

Дакота Джонсон, Джейми Дорнан, Эрик Джонсон, Элоиза Мамфорд, Белла Хиткот, Рита Ора, Люк Граймс, Виктор Расук, Макс Мартини, Брюс Олтмен

Описание:

Пока Кристиан Грей борется со своими внутренними демонами, Анастейша Стил вынуждена противостоять гневу и зависти тех женщин, что были с Кристианом до нее.

Качество: UHD BDRemux 2160p
Формат: MKV
Видео кодек: HEVC
Аудио кодек: AC3

Видео: MPEG-H HEVC HDR Video, 3840x2160, 39.2 Mbit/s, 23.976 fps
Аудио#1: 48 kHz, AC3, 5.1, 448 Kbps | Дублированный | RUS |
Аудио#2: 48 kHz, DTS-HD MA, 7.1, 4952 Kbps | Оригинал | ENG |

Релиз от:
скриншот  скриншот  скриншот  скриншот  скриншот  

General
Unique ID : 210960664129366757584803432728503762031 (0x9EB58BC789B32095B346946390A3BC6F)
Complete name : G:VideoSSDFifty.Shades.Darker.2017.UNRATED.BDREMUX.2160p.4K.UltraHD.HEVC.HDR.ExKinoRay.mkv
Format : Matroska
Format version : Version 4 / Version 2
File size : 40.9 GiB
Duration : 2 h 11 min
Overall bit rate : 44.6 Mb/s
Movie name : Release by ExKinoRay
Encoded date : UTC 2017-11-10 02:05:00
Writing application : mkvmerge v17.0.0 ('Be Ur Friend') 64-bit
Writing library : libebml v1.3.5 + libmatroska v1.4.8
Cover : Yes
Attachments : cover.jpg

Video
ID : 1
Format : HEVC
Format/Info : High Efficiency Video Coding
Format profile : Main 10@L5.1@High
Codec ID : V_MPEGH/ISO/HEVC
Duration : 2 h 11 min
Bit rate : 39.2 Mb/s
Width : 3 840 pixels
Height : 2 160 pixels
Display aspect ratio : 16:9
Frame rate mode : Constant
Frame rate : 23.976 (24000/1001) FPS
Color space : YUV
Chroma subsampling : 4:2:0 (Type 2)
Bit depth : 10 bits
Bits/(Pixel*Frame) : 0.197
Stream size : 36.0 GiB (88%)
Writing library : ATEME Titan File 3.7.8 (4.7.8.0)
Language : English
Default : Yes
Forced : No
Color range : Limited
Color primaries : BT.2020
Transfer characteristics : PQ
Matrix coefficients : BT.2020 non-constant
Mastering display color pri : R: x=0.680000 y=0.320000, G: x=0.265000 y=0.690000, B: x=0.150000 y=0.060000, White point: x=0.312700 y=0.329000
Mastering display luminance : min: 0.0050 cd/m2, max: 1000.0000 cd/m2
Maximum Content Light Level : 1000 cd/m2
Maximum Frame-Average Light : 127 cd/m2

Audio #1
ID : 2
Format : AC-3
Format/Info : Audio Coding 3
Format settings, Endianness : Big
Codec ID : A_AC3
Duration : 2 h 11 min
Bit rate mode : Constant
Bit rate : 448 kb/s
Channel(s) : 6 channels
Channel positions : Front: L C R, Side: L R, LFE
Sampling rate : 48.0 kHz
Frame rate : 31.250 FPS (1536 SPF)
Bit depth : 16 bits
Compression mode : Lossy
Stream size : 421 MiB (1%)
Title : Dub [License]
Language : Russian
Service kind : Complete Main
Default : Yes
Forced : No

Audio #2
ID : 3
Format : DTS
Format/Info : Digital Theater Systems
Format profile : X / MA / Core
Mode : 16
Format settings, Endianness : Big
Codec ID : A_DTS
Duration : 2 h 11 min
Bit rate mode : Variable / Variable / Constant
Bit rate : 4 952 kb/s / 4 952 kb/s / 1 509 kb/s
Channel(s) : Object Based / 8 channels / 6 channels
Channel positions : Object Based / Front: L C R, Side: L R, Back: L R, LFE / Front: L C R, Side: L R, LFE
Sampling rate : / 48.0 kHz / 48.0 kHz
Frame rate : 93.750 FPS (512 SPF)
Bit depth : / 24 bits / 24 bits
Compression mode : / Lossless / Lossy
Stream size : 4.55 GiB (11%)
Title : Original
Language : English
Default : No
Forced : No

Text #1
ID : 4
Format : UTF-8
Codec ID : S_TEXT/UTF8
Codec ID/Info : UTF-8 Plain Text
Duration : 2 h 8 min
Bit rate : 58 b/s
Count of elements : 1456
Stream size : 55.0 KiB (0%)
Title : Full
Language : Russian
Default : No
Forced : No

Text #2
ID : 5
Format : UTF-8
Codec ID : S_TEXT/UTF8
Codec ID/Info : UTF-8 Plain Text
Duration : 2 h 8 min
Bit rate : 41 b/s
Count of elements : 1471
Stream size : 39.4 KiB (0%)
Title : Full
Language : English
Default : No
Forced : No

Menu
00:00:00.000 : en:00:00:00.000
00:05:47.722 : en:00:05:47.722
00:13:14.460 : en:00:13:14.460
00:18:18.055 : en:00:18:18.055
00:24:45.359 : en:00:24:45.359
00:29:19.675 : en:00:29:19.675
00:37:25.201 : en:00:37:25.201
00:44:31.794 : en:00:44:31.794
00:50:22.394 : en:00:50:22.394
00:57:58.058 : en:00:57:58.058
01:06:01.958 : en:01:06:01.958
01:11:54.936 : en:01:11:54.936
01:24:49.876 : en:01:24:49.876
01:30:39.851 : en:01:30:39.851
01:35:40.651 : en:01:35:40.651
01:41:00.221 : en:01:41:00.221
01:48:53.735 : en:01:48:53.735
01:55:57.701 : en:01:55:57.701
02:01:38.374 : en:02:01:38.374
02:05:32.149 : en:02:05:32.149

piratbit.pw



Скачать На пятьдесят оттенков темнее через торрент http://s019.radikal.ru/i643/1711/df/f2db6b69d631.jpg Скачать фильм На пятьдесят оттенков темнее через торрент бесплантно в хорошем качестве Описание: Пока Кристиан Грей борется со своими внутренними демонами, Анастейша Стил вынуждена противостоять гневу и зависти тех женщин, что ... 8.2 10 5
Торрент: Зарегистрирован [2017-11-10 09:38] · скачан: 98 раз
Статус: √ проверено
Размер: 40.92 GB
Как cкачать? Как скачать На пятьдесят оттенков темнее через торрент | qTorrent

% Раздел Тема Автор DL S | L
Ultra HD (UHD: 2K, 4K, 8K) — видео сверхвысокой чёткости [ 41.23 GB ] На пятьдесят оттенков темнее / Fifty Shades Darker [2017 UHD BDRemux 2160p] [] [Unrated Cut] sheker187 Скачать
2 | 0
Фильмы (Blu-ray, BD-Remux, HDDVD) [ 43.22 GB ] На пятьдесят оттенков темнее / Fifty Shades Darker [2017 Blu-ray CEE 1080p] DUB [Театральная/расширенная версия] [] bober100 Скачать
1 | 0
Фильмы (Blu-ray, BD-Remux, HDDVD) [ 24.87 GB ] На пятьдесят оттенков темнее / Fifty Shades Darker [2017 BD Remux 1080p] DUB [Театральная версия] [] bober100 Скачать
1 | 0
Фильмы без перевода [ 29.8 GB ] На пятьдесят оттенков темнее / Fifty Shades Darker [2017 BD Remux] [Оригинал-ENG] smaster Скачать
1 | 0
Фильмы [HD 720p, 1080p] (Хороший звук DUB, MVO) [ 11.9 GB ] На пятьдесят оттенков темнее / Fifty Shades Darker [2017 BDRip 1080p] [Расширенная версия] - [] -Lexx- Скачать
3 | 0
Фильмы (Blu-ray, BD-Remux, HDDVD) [ 30.19 GB ] На пятьдесят оттенков темнее / Fifty Shades Darker [2017 BDRemux 1080p от ExKinoRay] Расширенная версия / Russian Mafia Скачать
1 | 0
Фильмы [HD 720p, 1080p] (Хороший звук DUB, MVO) [ 7.75 GB ] На пятьдесят оттенков темнее / Fifty Shades Darker [2017 BDRip 1080p от еnvy / NNNB] DUB / Unrated / еnvy Скачать
52 | 0

28-11-2019 20:33  

Отключить всю рекламу на сайте

    Дорогой пользователь! Огромная просьба, поблагодарите релизера, оцените раздачу и оставьте свои комментарий, если Вы скачали На пятьдесят оттенков темнее через торрент бесплатно! Внесите свою лепту в развитие PiratBit!
    Комментировать посты могут только пользователи прошедшие не сложную регистрацию
    Показать сообщения:    

    На пятьдесят оттенков темнее через торрент
    Скачать бесплатно На пятьдесят оттенков темнее
    На пятьдесят оттенков темнее скачать торрент
    На пятьдесят оттенков темнее смотреть онлайн
    Cкачать фильм На пятьдесят оттенков темнее бесплатно
    На пятьдесят оттенков темнее скачать торрент в хорошем качестве
    На пятьдесят оттенков темнее смотреть онлайн бесплатно в хорошем качестве


    Вы не можете начинать темы
    Вы не можете отвечать на сообщения
    Вы не можете редактировать свои сообщения
    Вы не можете удалять свои сообщения
    Вы не можете голосовать в опросах
    Вы не можете прикреплять файлы к сообщениям
    Вы можете скачивать файлы