Ссылка на приватное зеркало всего за 1$. Внимание количество ограничено!!!

iTunes

iTunes

iTunes

1

iTunes

iTunes

iTunes

iTunes

iTunes

30
pack

Новость дня

ВАЖНО

!!Акция!!

Alien_RageХит недели

RePack

Resident Evil 21

ИГРА 18+

pack

RePack

jed

!!Акция!!

Alien_Rage

RePack

fifa19

RePack

Assassins Creed: Odyssey

RePack

NEED FOR SPEED™ PAYBACK

4 сезон

9 сезон

Бесстыжие 9 сезон

Все сериалы

все сериалы на PB.wtf

RePack

FAR CRY 5
  

Другой мир: Войны крови / Underworld: Blood Wars (Анна Ферстер) [2016, Ужасы, боевик, UHD BDRemux 2160p] DUB [Лицензия] piratbit.pw

Другой мир: Войны крови через торрент piratbit.pw

Раздают: 1 [ 238 KB/s ]
Размер: 37.55 GB | Добавлен: 2 года 4 мес. назад | Торрент скачан:126 раз
Скачать  

09-11-2017 04:26 Другой мир: Войны крови Скачать торрент  

Другой мир: Войны крови / Underworld: Blood WarsГод выпуска: 2016
Страна: США
Жанр: Ужасы, боевик
Продолжительность: 01:31:32
Перевод: Дублированный | Лицензия
Субтитры: отсутствуют

Режиссер: Анна Ферстер

rating

В ролях:

Кейт Бекинсейл, Тео Джеймс, Лара Пулвер, Чарльз Дэнс, Тобайас Мензис, Брэдли Джеймс, Алисия Вела-Бэйли, Трент Гарретт, Дэйзи Хэд, Джеймс Фолкнер, Оливер Старк

Описание:

И вновь продолжается бой, и сердцу тревожно в груди... Недобитые остатки утонченной аристократии, сосущей кровь из трудового народа, из последних сил держат оборону в каком-то задрипанном поместье, обставленном с безобразной роскошью. Их атакует местная группировка байкеров, борющихся за свое место под солнцем. И тех и других возглавляют новые лидеры взамен старых, изрубленных топором. Все ищут Селин и ее дочь Еву, ведь их кровь позволит любой из сторон получить решающее преимущество в борьбе за передел сфер влияния.

Качество: UHD BDRemux 2160p
Формат: MKV
Видео кодек: HEVC
Аудио кодек: AC3

Видео: MPEG-H HEVC HDR Video, 3840x2160, 52.3 Mbit/s, 23.976 fps
Аудио#1: 48 kHz, AC3, 5.1, 640 Kbps | Дублированный|
Аудио#2: 48 kHz, TrueHD, 7.1, 5098 kbps | Оригинал |
Аудио#3: 48 kHz, AC3, 5.1, 640 kbps | Оригинал |

Релиз от:
скриншот  скриншот  скриншот  скриншот  скриншот  

General
Unique ID : 179896816650796538824462525005931971305 (0x8756DDDA128996E9914E7F85286F82E9)
Complete name : G:VideoSSDUnderworld.Blood.Wars.2016.BDREMUX.2160p.4K.UltraHD.HEVC.HDR.ExKinoRay.mkv
Format : Matroska
Format version : Version 4 / Version 2
File size : 37.6 GiB
Duration : 1 h 31 min
Overall bit rate mode : Variable
Overall bit rate : 58.8 Mb/s
Movie name : Release by ExKinoRay
Encoded date : UTC 2017-11-09 03:26:16
Writing application : mkvmerge v17.0.0 ('Be Ur Friend') 64-bit
Writing library : libebml v1.3.5 + libmatroska v1.4.8
Cover : Yes
Attachments : cover.jpg

Video
ID : 1
Format : HEVC
Format/Info : High Efficiency Video Coding
Format profile : Main 10@L5.1@High
Codec ID : V_MPEGH/ISO/HEVC
Duration : 1 h 31 min
Bit rate : 52.3 Mb/s
Width : 3 840 pixels
Height : 2 160 pixels
Display aspect ratio : 16:9
Frame rate mode : Constant
Frame rate : 23.976 (24000/1001) FPS
Color space : YUV
Chroma subsampling : 4:2:0 (Type 2)
Bit depth : 10 bits
Bits/(Pixel*Frame) : 0.263
Stream size : 33.4 GiB (89%)
Language : English
Default : Yes
Forced : No
Color range : Limited
Color primaries : BT.2020
Transfer characteristics : PQ
Matrix coefficients : BT.2020 non-constant
Mastering display color pri : R: x=0.680000 y=0.320000, G: x=0.265000 y=0.690000, B: x=0.150000 y=0.060000, White point: x=0.312700 y=0.329000
Mastering display luminance : min: 0.0050 cd/m2, max: 4000.0000 cd/m2
Maximum Content Light Level : 557 cd/m2
Maximum Frame-Average Light : 191 cd/m2

Audio #1
ID : 2
Format : AC-3
Format/Info : Audio Coding 3
Format settings, Endianness : Big
Codec ID : A_AC3
Duration : 1 h 31 min
Bit rate mode : Constant
Bit rate : 640 kb/s
Channel(s) : 6 channels
Channel positions : Front: L C R, Side: L R, LFE
Sampling rate : 48.0 kHz
Frame rate : 31.250 FPS (1536 SPF)
Bit depth : 16 bits
Compression mode : Lossy
Stream size : 419 MiB (1%)
Title : Dub
Language : Russian
Service kind : Complete Main
Default : Yes
Forced : No

Audio #2
ID : 3
Format : TrueHD
Format profile : TrueHD+Atmos / TrueHD
Codec ID : A_TRUEHD
Duration : 1 h 31 min
Bit rate mode : Variable
Bit rate : 5 098 kb/s
Maximum bit rate : 8 130 kb/s
Channel(s) : Object Based / 8 channels
Channel positions : Object Based / Front: L C R, Side: L R, Back: L R, LFE
Sampling rate : / 48.0 kHz
Frame rate : 1 200.000 FPS (40 SPF)
Compression mode : Lossless
Stream size : 3.26 GiB (9%)
Title : Original
Language : English
Default : No
Forced : No

Audio #3
ID : 4
Format : AC-3
Format/Info : Audio Coding 3
Format settings, Endianness : Big
Codec ID : A_AC3
Duration : 1 h 31 min
Bit rate mode : Constant
Bit rate : 640 kb/s
Channel(s) : 6 channels
Channel positions : Front: L C R, Side: L R, LFE
Sampling rate : 48.0 kHz
Frame rate : 31.250 FPS (1536 SPF)
Bit depth : 16 bits
Compression mode : Lossy
Stream size : 419 MiB (1%)
Language : English
Service kind : Complete Main
Default : No
Forced : No

Menu
00:00:00.000 : en:Chapter 1
00:04:31.187 : en:Chapter 2
00:09:26.274 : en:Chapter 3
00:14:00.923 : en:Chapter 4
00:18:53.090 : en:Chapter 5
00:24:12.951 : en:Chapter 6
00:31:01.818 : en:Chapter 7
00:36:17.049 : en:Chapter 8
00:42:07.274 : en:Chapter 9
00:47:28.387 : en:Chapter 10
00:52:13.922 : en:Chapter 11
00:58:51.027 : en:Chapter 12
01:04:26.863 : en:Chapter 13
01:08:47.331 : en:Chapter 14
01:13:43.335 : en:Chapter 15
01:20:05.759 : en:Chapter 16

piratbit.pw



Скачать Другой мир: Войны крови через торрент http://s61.radikal.ru/i174/1711/dd/d5109d777a5a.jpg Скачать фильм Другой мир: Войны крови через торрент бесплантно в хорошем качестве Описание: И вновь продолжается бой, и сердцу тревожно в груди... Недобитые остатки утонченной аристократии, сосущей кровь из трудового ... 9.1 10 10
Info! Золотая раздача, скачанное не засчитывается.
Торрент: Зарегистрирован [2017-11-09 04:26] · скачан: 126 раз
Статус: √ проверено
Размер: 37.55 GB
Как cкачать? Как скачать Другой мир: Войны крови через торрент | qTorrent

% Раздел Тема Автор DL S | L
Фильмы 2016 [DVDrip, WEB-DLRip, HDrip] (DUB, MVO) [ 1.47 GB ] Другой мир: Войны крови / Underworld: Blood Wars [2016 HDRip ] winchester00100010 Скачать
1 | 0
Фильмы (Blu-ray, BD-Remux, HDDVD) [ 22.41 GB ] Другой мир: Войны крови / Underworld: Blood Wars [2016 BDRemux 1080p] DUB + 3xAVO sheker187 Скачать
1 | 0
Ultra HD (UHD: 2K, 4K, 8K) — видео сверхвысокой чёткости [ 49.33 GB ] Другой мир: Войны крови / Underworld: Blood Wars [2016 UHD Blu-ray 2160p] DUB [] bober100 Скачать
1 | 0
3D Фильмы [ 5.21 GB ] Другой мир: Войны крови в 3D / Underworld: Blood Wars in 3D [2016 BDRip 1080p ] Анаглиф slaventi-69 Скачать
2 | 0
R.G. Resident & PiratVoice - Фильмы, Видео [ 3.71 GB ] Другой мир: Войны крови / Underworld: Blood Wars [2016 BDRip 720p ] - [] schultz Скачать
3 | 0
Фильмы (Blu-ray, BD-Remux, HDDVD) [ 29.75 GB ] Другой мир: Войны крови / Underworld: Blood Wars [2016 Blu-ray ] Бумер Скачать
1 | 0
3D Фильмы [ 6.44 GB ] Другой мир: Войны крови / Underworld: Blood Wars [2016 BDRip 1080p от Ash61] / 3D-Video / halfOU / [] -Lexx- Скачать
3 | 0

28-11-2019 20:33  

Отключить всю рекламу на сайте

    Дорогой пользователь! Огромная просьба, поблагодарите релизера, оцените раздачу и оставьте свои комментарий, если Вы скачали Другой мир: Войны крови через торрент бесплатно! Внесите свою лепту в развитие PiratBit!
    Комментировать посты могут только пользователи прошедшие не сложную регистрацию
    Показать сообщения:    

    Другой мир: Войны крови через торрент
    Скачать бесплатно Другой мир: Войны крови
    Другой мир: Войны крови скачать торрент
    Другой мир: Войны крови смотреть онлайн
    Cкачать фильм Другой мир: Войны крови бесплатно
    Другой мир: Войны крови скачать торрент в хорошем качестве
    Другой мир: Войны крови смотреть онлайн бесплатно в хорошем качестве


    Вы не можете начинать темы
    Вы не можете отвечать на сообщения
    Вы не можете редактировать свои сообщения
    Вы не можете удалять свои сообщения
    Вы не можете голосовать в опросах
    Вы не можете прикреплять файлы к сообщениям
    Вы можете скачивать файлы