Ссылка на приватное зеркало всего за 1$. Внимание количество ограничено!!!

iTunes

iTunes

iTunes

1

iTunes

iTunes

iTunes

iTunes

iTunes

30
pack

Новость дня

ВАЖНО

!!Акция!!

Alien_RageХит недели

RePack

Resident Evil 21

ИГРА 18+

pack

RePack

jed

!!Акция!!

Alien_Rage

RePack

fifa19

RePack

Assassins Creed: Odyssey

RePack

NEED FOR SPEED™ PAYBACK

4 сезон

9 сезон

Бесстыжие 9 сезон

Все сериалы

все сериалы на PB.wtf

RePack

FAR CRY 5
  

Разлом Сан-Андреас / San Andreas (Брэд Пейтон) [2015, Боевик, триллер, драма, UHD BDRemux 2160p] DUB [Лицензия] piratbit.pw

Разлом Сан-Андреас через торрент piratbit.pw

Раздают: 1 [ 0 KB/s ]
Размер: 48.13 GB | Добавлен: 2 года 4 мес. назад | Торрент скачан:66 раз
Скачать  

08-11-2017 05:09 Разлом Сан-Андреас Скачать торрент  

Разлом Сан-Андреас / San AndreasГод выпуска: 2015
Страна: США
Жанр: Боевик, триллер, драма
Продолжительность: 01:54:28
Перевод: Дублированный | Лицензия
Субтитры: Русские (forced, full), английские

Режиссер: Брэд Пейтон

rating

В ролях:

Дуэйн Джонсон, Карла Гуджино, Александра Даддарио, Йоан Гриффит, Арчи Панджаби, Пол Джаматти, Хьюго Джонстон-Барт, Арт Паркинсон, Уилл Юн Ли, Кайли Миноуг, Колтон Хэйнс, Тодд Уильямс, Мэтт Джералд, Алек Утгофф, Марисса Нейтлинг, Морган Гриффин, Бриэнн Хилл, Лоуренс Кой, Фиона Пресс, Дэннис Корд

Описание:

Рэй — пилот спасательного вертолета, который всю свою жизнь помогал другим людям. За все время работы он насмотрелся на множество жутких вещей и не раз оказывался в очень сложных ситуациях. Несмотря на все преграды он спешил на помощь, даже не предполагая, что самое страшное ждет его впереди. На Калифорнию обрушивается мощное землетрясение, в результате которого гибнут сотни людей и образовывается огромная трещина в земле. Во всеобщем хаосе Рэю предстоит отыскать свою дочь, но сделать это будет очень непросто. В надежде, что его ребенок все еще жив, он отправляется в смертельно опасное путешествие через весь штат…

Качество: UHD BDRemux 2160p
Формат: MKV
Видео кодек: HEVC
Аудио кодек: AC3

Видео: MPEG-H HEVC HDR Video, 3840x2160, 54.0 Mbit/s, 23.976 fps
Аудио#1: 48 kHz, AC3, 5.1, 448 Kbps | Дублированный | RUS |
Аудио#2: 48 kHz, TrueHD, 7.1, 5173 Kbps | Оригинал | ENG |
Аудио#3: 48 kHz, AC3, 5.1, 384 Kbps | Оригинал | ENG |

Релиз от:
скриншот  скриншот  скриншот  скриншот  скриншот  

General
Unique ID : 245147218558560257594152945160532688893 (0xB86DA30BE98CD3F78FCFA66970527FFD)
Complete name : G:VideoSSDSan.Andreas.2015.BDREMUX.2160p.4K.UltraHD.HEVC.HDR.ExKinoRay.mkv
Format : Matroska
Format version : Version 4 / Version 2
File size : 48.1 GiB
Duration : 1 h 56 min
Overall bit rate mode : Variable
Overall bit rate : 59.2 Mb/s
Movie name : Release by ExKinoRay
Encoded date : UTC 2017-11-08 04:19:41
Writing application : mkvmerge v17.0.0 ('Be Ur Friend') 64-bit
Writing library : libebml v1.3.5 + libmatroska v1.4.8
Cover : Yes
Attachments : cover.jpg

Video
ID : 1
Format : HEVC
Format/Info : High Efficiency Video Coding
Format profile : Main 10@L5.1@High
Codec ID : V_MPEGH/ISO/HEVC
Duration : 1 h 54 min
Bit rate : 54.0 Mb/s
Width : 3 840 pixels
Height : 2 160 pixels
Display aspect ratio : 16:9
Frame rate mode : Constant
Frame rate : 23.976 (24000/1001) FPS
Color space : YUV
Chroma subsampling : 4:2:0 (Type 2)
Bit depth : 10 bits
Bits/(Pixel*Frame) : 0.272
Stream size : 43.2 GiB (90%)
Writing library : ATEME Titan KFE 3.7.3 (4.7.3.1001)
Language : English
Default : Yes
Forced : No
Color range : Limited
Color primaries : BT.2020
Transfer characteristics : PQ
Matrix coefficients : BT.2020 non-constant
Mastering display color pri : R: x=0.680000 y=0.320000, G: x=0.265000 y=0.690000, B: x=0.150000 y=0.060000, White point: x=0.312700 y=0.329000
Mastering display luminance : min: 0.0050 cd/m2, max: 4000.0000 cd/m2

Audio #1
ID : 2
Format : AC-3
Format/Info : Audio Coding 3
Format settings, Endianness : Big
Codec ID : A_AC3
Duration : 1 h 54 min
Bit rate mode : Constant
Bit rate : 448 kb/s
Channel(s) : 6 channels
Channel positions : Front: L C R, Side: L R, LFE
Sampling rate : 48.0 kHz
Frame rate : 31.250 FPS (1536 SPF)
Bit depth : 16 bits
Compression mode : Lossy
Stream size : 367 MiB (1%)
Title : Dub
Language : Russian
Service kind : Complete Main
Default : Yes
Forced : No

Audio #2
ID : 3
Format : TrueHD
Format profile : TrueHD+Atmos / TrueHD
Codec ID : A_TRUEHD
Duration : 1 h 56 min
Bit rate mode : Variable
Bit rate : 5 173 kb/s
Maximum bit rate : 8 760 kb/s
Channel(s) : Object Based / 8 channels
Channel positions : Object Based / Front: L C R, Side: L R, Back: L R, LFE
Sampling rate : / 48.0 kHz
Frame rate : 1 200.000 FPS (40 SPF)
Compression mode : Lossless
Stream size : 4.21 GiB (9%)
Title : Original
Language : English
Default : No
Forced : No

Audio #3
ID : 4
Format : AC-3
Format/Info : Audio Coding 3
Format settings, Endianness : Big
Codec ID : A_AC3
Duration : 1 h 56 min
Bit rate mode : Constant
Bit rate : 384 kb/s
Channel(s) : 6 channels
Channel positions : Front: L C R, Side: L R, LFE
Sampling rate : 48.0 kHz
Frame rate : 31.250 FPS (1536 SPF)
Bit depth : 16 bits
Compression mode : Lossy
Stream size : 320 MiB (1%)
Language : English
Service kind : Complete Main
Default : No
Forced : No

Text #1
ID : 5
Format : UTF-8
Codec ID : S_TEXT/UTF8
Codec ID/Info : UTF-8 Plain Text
Duration : 1 h 53 min
Bit rate : 1 b/s
Count of elements : 29
Stream size : 1.21 KiB (0%)
Title : Forced
Language : Russian
Default : Yes
Forced : No

Text #2
ID : 6
Format : UTF-8
Codec ID : S_TEXT/UTF8
Codec ID/Info : UTF-8 Plain Text
Duration : 1 h 53 min
Bit rate : 60 b/s
Count of elements : 1267
Stream size : 49.7 KiB (0%)
Title : Full
Language : Russian
Default : No
Forced : No

Text #3
ID : 7
Format : UTF-8
Codec ID : S_TEXT/UTF8
Codec ID/Info : UTF-8 Plain Text
Duration : 1 h 52 min
Bit rate : 48 b/s
Count of elements : 1489
Stream size : 39.9 KiB (0%)
Title : Full
Language : English
Default : No
Forced : No

Menu
00:00:00.000 : en:00:00:00.000
00:09:29.944 : en:00:09:29.944
00:18:47.209 : en:00:18:47.209
00:30:10.100 : en:00:30:10.100
00:40:08.823 : en:00:40:08.823
00:50:18.098 : en:00:50:18.098
00:59:44.498 : en:00:59:44.498
01:11:27.366 : en:01:11:27.366
01:19:43.612 : en:01:19:43.612
01:30:40.810 : en:01:30:40.810
01:39:56.490 : en:01:39:56.490
01:47:10.924 : en:01:47:10.924

piratbit.pw



Скачать Разлом Сан-Андреас через торрент http://s010.radikal.ru/i311/1711/42/1a0b4ca6b65b.jpg Скачать фильм Разлом Сан-Андреас через торрент бесплантно в хорошем качестве Описание: Рэй — пилот спасательного вертолета, который всю свою жизнь помогал другим людям. За все время работы он насмотрелся на множество ... 9 10 9
Info! Золотая раздача, скачанное не засчитывается.
Торрент: Зарегистрирован [2017-11-08 05:09] · скачан: 66 раз
Статус: √ проверено
Размер: 48.13 GB
Как cкачать? Как скачать Разлом Сан-Андреас через торрент | qTorrent

% Раздел Тема Автор DL S | L
Фильмы [HD 720p, 1080p] (Хороший звук DUB, MVO) [ 5.03 GB ] Разлом Сан-Андреас / San Andreas [2015 BDRip 1080p HEVC ()] Мичман37 Скачать
3 | 0
Ultra HD (UHD: 2K, 4K, 8K) — видео сверхвысокой чёткости [ 55.75 GB ] Разлом Сан-Андреас / San Andreas [2015 UHD BDRemux 2160p] DUB + AVO [А. Гаврилов] sheker187 Скачать
1 | 0
Фильмы (HD 720p, 1080p) (48-60 fps) [ 6.51 GB ] Разлом Сан-Андреас / San Andreas [2015 BDRip 720p 60 fps от еnvy / NNNB] DUB еnvy Скачать
14 | 0
Фильмы 2015 [DVDrip, WEB-DLRip, HDrip] [ 3.43 GB ] Разлом Сан-Андреас / San Andreas [2015 BDRip-AVC Авторский одноголосый Андрей Гаврилов] от ExKinoRay morfyi Скачать
3 | 0
Ultra HD (UHD: 2K, 4K, 8K) — видео сверхвысокой чёткости [ 21.4 GB ] Разлом Сан-Андреас / San Andreas [2015 UHD WEBRip 2160p] [USA Transfer] DUB [] bober100 Скачать
1 | 0
Фильмы (DVD фильмы) [ 5.58 GB ] Разлом Сан-Андреас / San Andreas [2015 DVD9 / Custom] DUB Ворон Скачать
1 | 0
Фильмы 2015 [DVDrip, WEB-DLRip, HDrip] [ 1.46 GB ] Разлом Сан-Андреас / San Andreas [2015 BDRip-AVC] DUB potroks Скачать
2 | 0

28-11-2019 20:33  

Отключить всю рекламу на сайте

    Дорогой пользователь! Огромная просьба, поблагодарите релизера, оцените раздачу и оставьте свои комментарий, если Вы скачали Разлом Сан-Андреас через торрент бесплатно! Внесите свою лепту в развитие PiratBit!
    Комментировать посты могут только пользователи прошедшие не сложную регистрацию
    Показать сообщения:    

    Разлом Сан-Андреас через торрент
    Скачать бесплатно Разлом Сан-Андреас
    Разлом Сан-Андреас скачать торрент
    Разлом Сан-Андреас смотреть онлайн
    Cкачать фильм Разлом Сан-Андреас бесплатно
    Разлом Сан-Андреас скачать торрент в хорошем качестве
    Разлом Сан-Андреас смотреть онлайн бесплатно в хорошем качестве


    Вы не можете начинать темы
    Вы не можете отвечать на сообщения
    Вы не можете редактировать свои сообщения
    Вы не можете удалять свои сообщения
    Вы не можете голосовать в опросах
    Вы не можете прикреплять файлы к сообщениям
    Вы можете скачивать файлы