Ссылка на приватное зеркало всего за 1$. Внимание количество ограничено!!!

iTunes

iTunes

iTunes

1

iTunes

iTunes

iTunes

iTunes

iTunes

30
pack

Новость дня

ВАЖНО

!!Акция!!

Alien_RageХит недели

RePack

Resident Evil 21

ИГРА 18+

pack

RePack

jed

!!Акция!!

Alien_Rage

RePack

fifa19

RePack

Assassins Creed: Odyssey

RePack

NEED FOR SPEED™ PAYBACK

4 сезон

9 сезон

Бесстыжие 9 сезон

Все сериалы

все сериалы на PB.wtf

RePack

FAR CRY 5
  

Механик: Воскрешение / Mechanic: Resurrection (Дэннис Ганзель) [2016, Боевик, триллер, криминал, UHD BDRemux 2160p] DUB [Лицензия] +MVO+2xAVO piratbit.pw

Механик: Воскрешение через торрент piratbit.pw

Размер: 62.52 GB | Добавлен: 4 мес. 28 д. назад | Торрент скачан:13 раз
Скачать  

07-11-2017 17:34 Механик: Воскрешение Скачать торрент  

Механик: Воскрешение / Mechanic: Resurrection
Год выпуска: 2016
Страна: Франция, США
Жанр: Боевик, триллер, криминал
Продолжительность: 01:38:35
Перевод: Дублированный | Лицензия, профессиональный многоголосый, авторский
Субтитры: русские (forced, full, FocusStudio), английские (full, SDH)

Режиссер: Дэннис Ганзель

rating

В ролях: Джейсон Стэйтем, Джессика Альба, Томми Ли Джонс, Мишель Йео, Наталия Гуслистая, Ейяинг Рхатха Пхонгам, Сэм Хэзелдайн, Джон Ченатьемпо, Райчо Василев, Аарон Брамфилд

Описание: Артура Бишопа, давно оставившего свое криминальное ремесло, вынуждают снова вступить в игру. Чтобы похитители вернули его возлюбленную, он должен сделать то, что у него получается лучше всего: от него требуется совершить три убийства, идеально обставленных как несчастные случаи.

Качество: UHD BDRemux 2160p
Формат: MKV

Видео: MPEG-H HEVC Video / 73869 kbps / 3840x2160 / 23.976 fps / 16:9 / Main 10 @ Level 5.1 @ High / 4:2:0 / 10 bits / HDR10 / BT.2020 /
Аудио 1: Russian DTS-HD Master Audio / 5.1 / 48 kHz / 4207 kbps / 24 bits (DTS Core: 5.1 / 48 kHz / 1509 kbps / 24 bits) |Dub, Blu-Ray|
Аудио 2: Russian AC3 / 5.1 / 48 kHz / 640 kbps / 16 bits |MVO, FocusStudio|
Аудио 3: Russian AC3 / 5.1 / 48 kHz / 384 kbps / 16 bits |А. Гаврилов|
Аудио 4: Russian DTS-HD Master Audio / 7.1 / 48 kHz / 5613 kbps / 24 bits (DTS Core: 5.1 / 48 kHz / 1509 kbps / 24 bits) |М. Яроцкий|
Аудио 5: English Dolby Atmos/TrueHD Audio / 7.1-Atmos / 48 kHz / 6000 kbps / 24-bit |original|
Аудио 6: English AC3 Core: 5.1-EX / 48 kHz / 640 kbps |original|

скриншот  скриншот  скриншот  скриншот  скриншот  

Общее
Уникальный идентификатор : 292071525245191114333012408382416771697 (0xDBBAEDFCB50E45C370CC5629F1845A71)
Полное имя : H:\UHD\Механик Воскрешение.2016.UHD.Blu-Ray.Remux.2160p.mkv
Формат : Matroska
Версия формата : Version 4
Размер файла : 62,5 Гбайт
Продолжительность : 1 ч. 38 м.
Режим общего битрейта : Переменный
Общий поток : 90,8 Мбит/сек
Дата кодирования : UTC 2019-11-03 16:28:56
Программа кодирования : mkvmerge v38.0.0 ('The Silent Type') 64-bit
Библиотека кодирования : libebml v1.3.9 + libmatroska v1.5.2
Attachments : poster.jpg

Видео
Идентификатор : 1
Формат : HEVC
Формат/Информация : High Efficiency Video Coding
Профиль формата : Main 10@L5.1@High
HDR_Format/String : SMPTE ST 2086, HDR10 compatible
Идентификатор кодека : V_MPEGH/ISO/HEVC
Продолжительность : 1 ч. 38 м.
Битрейт : 73,9 Мбит/сек
Ширина : 3840 пикселей
Высота : 2160 пикселей
Соотношение сторон : 16:9
Режим частоты кадров : Постоянный
Частота кадров : 23,976 (24000/1001) кадра/сек
Цветовое пространство : YUV
Субдискретизация насыщенности : 4:2:0 (Type 2)
Битовая глубина : 10 бит
Бит/(Пиксели*Кадры) : 0.371
Размер потока : 50,9 Гбайт (81%)
Библиотека кодирования : ATEME Titan KFE 3.7.3 (4.7.3.1003)
Default : Да
Forced : Нет
Цветовой диапазон : Limited
Основные цвета : BT.2020
Характеристики трансфера : PQ
Коэффициенты матрицы : BT.2020 non-constant
MasteringDisplay_ColorPrimaries : Display P3
MasteringDisplay_Luminance : min: 0.0000 cd/m2, max: 1000 cd/m2
MaxCLL : 1000 cd/m2
MaxFALL : 446 cd/m2

Аудио #1
Идентификатор : 2
Формат : DTS XLL
Формат/Информация : Digital Theater Systems
Коммерческое название : DTS-HD Master Audio
Идентификатор кодека : A_DTS
Продолжительность : 1 ч. 38 м.
Вид битрейта : Переменный
Битрейт : 4207 Кбит/сек
Каналы : 6 каналов
ChannelLayout : C L R Ls Rs LFE
Частота : 48,0 КГц
Частота кадров : 93,750 кадра/сек (512 SPF)
Битовая глубина : 24 бит
Метод сжатия : Без потерь
Размер потока : 2,90 Гбайт (5%)
Заголовок : Dub, Blu-Ray
Язык : Russian
Default : Да
Forced : Нет

Аудио #2
Идентификатор : 3
Формат : AC-3
Формат/Информация : Audio Coding 3
Коммерческое название : Dolby Digital
Идентификатор кодека : A_AC3
Продолжительность : 1 ч. 38 м.
Вид битрейта : Постоянный
Битрейт : 640 Кбит/сек
Каналы : 6 каналов
ChannelLayout : L R C LFE Ls Rs
Частота : 48,0 КГц
Частота кадров : 31,250 кадров/сек (1536 SPF)
Метод сжатия : С потерями
Размер потока : 451 Мбайт (1%)
Заголовок : MVO, FocusStudio
Язык : Russian
ServiceKind/String : Complete Main
Default : Нет
Forced : Нет

Аудио #3
Идентификатор : 4
Формат : AC-3
Формат/Информация : Audio Coding 3
Коммерческое название : Dolby Digital
Идентификатор кодека : A_AC3
Продолжительность : 1 ч. 38 м.
Вид битрейта : Постоянный
Битрейт : 384 Кбит/сек
Каналы : 6 каналов
ChannelLayout : L R C LFE Ls Rs
Частота : 48,0 КГц
Частота кадров : 31,250 кадров/сек (1536 SPF)
Метод сжатия : С потерями
Размер потока : 271 Мбайт (0%)
Заголовок : А. Гаврилов
Язык : Russian
ServiceKind/String : Complete Main
Default : Нет
Forced : Нет

Аудио #4
Идентификатор : 5
Формат : DTS XLL
Формат/Информация : Digital Theater Systems
Коммерческое название : DTS-HD Master Audio
Идентификатор кодека : A_DTS
Продолжительность : 1 ч. 38 м.
Вид битрейта : Переменный
Битрейт : 5613 Кбит/сек
Каналы : 8 каналов
ChannelLayout : C L R LFE Lb Rb Lss Rss
Частота : 48,0 КГц
Частота кадров : 93,750 кадра/сек (512 SPF)
Битовая глубина : 24 бит
Метод сжатия : Без потерь
Размер потока : 3,86 Гбайт (6%)
Заголовок : М. Яроцкий
Язык : Russian
Default : Нет
Forced : Нет

Аудио #5
Идентификатор : 6
Формат : MLP FBA 16-ch
Формат/Информация : Meridian Lossless Packing FBA with 16-channel presentation
Коммерческое название : Dolby TrueHD with Dolby Atmos
Идентификатор кодека : A_TRUEHD
Продолжительность : 1 ч. 38 м.
Вид битрейта : Переменный
Битрейт : 5360 Кбит/сек
Максимальный битрейт : 9072 Кбит/сек
Каналы : 8 каналов
ChannelLayout : L R C LFE Ls Rs Lb Rb
Частота : 48,0 КГц
Частота кадров : 1200,000 кадров/сек (40 SPF)
Метод сжатия : Без потерь
Размер потока : 3,69 Гбайт (6%)
Язык : English
Default : Нет
Forced : Нет
NumberOfDynamicObjects : 15
BedChannelCount/String : 1 канал
BedChannelConfiguration : LFE

Аудио #6
Идентификатор : 7
Формат : AC-3
Формат/Информация : Audio Coding 3
Коммерческое название : Dolby Digital
Идентификатор кодека : A_AC3
Продолжительность : 1 ч. 38 м.
Вид битрейта : Постоянный
Битрейт : 640 Кбит/сек
Каналы : 6 каналов
ChannelLayout : L R C LFE Ls Rs
Частота : 48,0 КГц
Частота кадров : 31,250 кадров/сек (1536 SPF)
Метод сжатия : С потерями
Размер потока : 451 Мбайт (1%)
Язык : English
ServiceKind/String : Complete Main
Default : Нет
Forced : Нет

Текст #1
Идентификатор : 8
Формат : UTF-8
Идентификатор кодека : S_TEXT/UTF8
Идентификатор кодека/Информация : UTF-8 Plain Text
Продолжительность : 1 ч. 31 м.
Битрейт : 1 бит/сек
ElementCount : 19
Размер потока : 962 байт (0%)
Заголовок : forced
Язык : Russian
Default : Да
Forced : Нет

Текст #2
Идентификатор : 9
Формат : UTF-8
Идентификатор кодека : S_TEXT/UTF8
Идентификатор кодека/Информация : UTF-8 Plain Text
Продолжительность : 1 ч. 33 м.
Битрейт : 44 бит/сек
ElementCount : 594
Размер потока : 30,6 Кбайт (0%)
Заголовок : full
Язык : Russian
Default : Нет
Forced : Нет

Текст #3
Идентификатор : 10
Формат : UTF-8
Идентификатор кодека : S_TEXT/UTF8
Идентификатор кодека/Информация : UTF-8 Plain Text
Продолжительность : 1 ч. 33 м.
Битрейт : 49 бит/сек
ElementCount : 740
Размер потока : 33,9 Кбайт (0%)
Заголовок : FocusStudio
Язык : Russian
Default : Нет
Forced : Нет

Текст #4
Идентификатор : 11
Формат : UTF-8
Идентификатор кодека : S_TEXT/UTF8
Идентификатор кодека/Информация : UTF-8 Plain Text
Продолжительность : 1 ч. 30 м.
Битрейт : 29 бит/сек
ElementCount : 631
Размер потока : 19,9 Кбайт (0%)
Заголовок : full
Язык : English
Default : Нет
Forced : Нет

Текст #5
Идентификатор : 12
Формат : UTF-8
Идентификатор кодека : S_TEXT/UTF8
Идентификатор кодека/Информация : UTF-8 Plain Text
Продолжительность : 1 ч. 33 м.
Битрейт : 34 бит/сек
ElementCount : 847
Размер потока : 23,9 Кбайт (0%)
Заголовок : SDH
Язык : English
Default : Нет
Forced : Нет

Меню
00:00:00.000 : en:Chapter 01
00:06:34.936 : en:Chapter 02
00:11:51.336 : en:Chapter 03
00:18:31.277 : en:Chapter 04
00:26:04.897 : en:Chapter 05
00:31:57.541 : en:Chapter 06
00:38:31.267 : en:Chapter 07
00:43:35.696 : en:Chapter 08
00:49:23.210 : en:Chapter 09
00:54:20.382 : en:Chapter 10
01:00:09.856 : en:Chapter 11
01:05:50.446 : en:Chapter 12
01:10:25.430 : en:Chapter 13
01:14:52.363 : en:Chapter 14
01:21:04.860 : en:Chapter 15
01:31:38.785 : en:Chapter 16

piratbit.pw



Скачать Механик: Воскрешение через торрент http://s41.radikal.ru/i093/1711/04/30737344196b.jpg Скачать фильм Механик: Воскрешение через торрент бесплантно в хорошем качестве Описание: Артура Бишопа, давно оставившего свое криминальное ремесло, вынуждают снова вступить в игру. Чтобы похитители вернули его ... 10 10 6
Торрент: Зарегистрирован [2019-11-03 18:41] · скачан: 13 раз
Статус: √ проверено
Размер: 62.52 GB
Как cкачать? Как скачать Механик: Воскрешение через торрент | qTorrent

28-11-2019 20:33  

Отключить всю рекламу на сайте

    Дорогой пользователь! Огромная просьба, поблагодарите релизера, оцените раздачу и оставьте свои комментарий, если Вы скачали Механик: Воскрешение через торрент бесплатно! Внесите свою лепту в развитие PiratBit!
    Комментировать посты могут только пользователи прошедшие не сложную регистрацию
    Показать сообщения:    

    Механик: Воскрешение через торрент
    Скачать бесплатно Механик: Воскрешение
    Механик: Воскрешение скачать торрент
    Механик: Воскрешение смотреть онлайн
    Cкачать фильм Механик: Воскрешение бесплатно
    Механик: Воскрешение скачать торрент в хорошем качестве
    Механик: Воскрешение смотреть онлайн бесплатно в хорошем качестве


    Вы не можете начинать темы
    Вы не можете отвечать на сообщения
    Вы не можете редактировать свои сообщения
    Вы не можете удалять свои сообщения
    Вы не можете голосовать в опросах
    Вы не можете прикреплять файлы к сообщениям
    Вы можете скачивать файлы