Ссылка на приватное зеркало всего за 1$. Внимание количество ограничено!!!

iTunes

iTunes

iTunes

1

iTunes

iTunes

iTunes

iTunes

iTunes

30
pack

Новость дня

ВАЖНО

!!Акция!!

Alien_RageХит недели

RePack

Resident Evil 21

ИГРА 18+

pack

RePack

jed

!!Акция!!

Alien_Rage

RePack

fifa19

RePack

Assassins Creed: Odyssey

RePack

NEED FOR SPEED™ PAYBACK

4 сезон

9 сезон

Бесстыжие 9 сезон

Все сериалы

все сериалы на PB.wtf

RePack

FAR CRY 5
  

Призрак в доспехах / Ghost in the Shell (Руперт Сандерс) [2017, Фантастика, боевик, триллер, драма, криминал, UHD BDRemux 2160p] DUB [Лицензия] piratbit.pw

Призрак в доспехах через торрент piratbit.pw

Размер: 51.87 GB | Добавлен: 2 года 4 мес. назад | Торрент скачан:165 раз
Скачать  

07-11-2017 15:40 Призрак в доспехах Скачать торрент  

Призрак в доспехах / Ghost in the ShellГод выпуска: 2017
Страна: США
Жанр: Фантастика, боевик, триллер, драма, криминал, детектив
Продолжительность: 01:46:56
Перевод: Дублированный | Лицензия
Субтитры: Русские (forced, full), английские (Full, SDH)

Режиссер: Руперт Сандерс

rating

В ролях:

Скарлетт Йоханссон, Йохан Филип Асбек, Такеши Китано, Жюльетт Бинош, Майкл Питт, Чин Хань, Дануся Самал, Ласарус Ратуэре, Ютака Идзумихара, Таванда Маниймо

Описание:

Светлое будущее, где что-то пошло не так. Мир погряз в Интернете и передовом протезировании. Каждое человеческое существо считает своим святым долгом вставить в уши антенны от Wi-Fi роутера, сделать пластическую операцию под Рикки Мартина или хотя бы залить в себя лимонад "Буратино" вместо крови. Между тем, в недрах могущественной корпорации тайно разрабатывается особый военизированный имплант, фактически не оставляющий в организме подопытного ни одного живого места. Получившийся в результате эксперимента гибрид зачисляют в качестве боевого агента в отдел по борьбе с электронным бандитизмом. И когда неизвестный хакер начинает виртуозно кошмарить бизнес, грубо проникая в мозги лучших ученых компании с помощью инородных предметов, только первый в мире киборг с полностью синтетическим телом и встроенным генератором случайных мыслей и эмоций способен остановить произвол.


Качество: UHD BDRemux 2160p
Формат: MKV
Видео кодек: HEVC
Аудио кодек: AC3

Видео: MPEG-H HEVC HDR Video, 3840x2160, 64.0 Mbit/s, 23.976 fps
Аудио#1: 48 kHz, AC3, 5.1, 640 Kbps | Дублированный | Лицензия | RUS |

Аудио#2: 48 kHz, TrueHD, 7.1, 4131 Kbps | Оригинал | ENG |
Аудио#3: 48 kHz, AC3, 5.1, 640 Kbps | Оригинал | ENG |
Релиз от:
скриншот  скриншот  скриншот  скриншот  скриншот  


General
Unique ID : 201462787759205980440058088134897923299 (0x97905251EBD49BCEA7A582B64BA174E3)
Complete name : G:VideoSSDGhost.in.the.Shell.2017.BDREMUX.2160p.4K.UltraHD.HEVC.HDR.ExKinoRay.mkv
Format : Matroska
Format version : Version 4 / Version 2
File size : 51.9 GiB
Duration : 1 h 46 min
Overall bit rate mode : Variable
Overall bit rate : 69.4 Mb/s
Movie name : Release by ExKinoRay
Encoded date : UTC 2017-11-07 14:59:08
Writing application : mkvmerge v17.0.0 ('Be Ur Friend') 64-bit
Writing library : libebml v1.3.5 + libmatroska v1.4.8
Cover : Yes
Attachments : cover.jpg

Video
ID : 1
Format : HEVC
Format/Info : High Efficiency Video Coding
Format profile : Main 10@L5.1@High
Codec ID : V_MPEGH/ISO/HEVC
Duration : 1 h 46 min
Bit rate : 64.0 Mb/s
Width : 3 840 pixels
Height : 2 160 pixels
Display aspect ratio : 16:9
Frame rate mode : Constant
Frame rate : 23.976 (24000/1001) FPS
Color space : YUV
Chroma subsampling : 4:2:0 (Type 2)
Bit depth : 10 bits
Bits/(Pixel*Frame) : 0.322
Stream size : 47.8 GiB (92%)
Writing library : ATEME Titan File 3.8.3 (4.8.3.0)
Language : English
Default : Yes
Forced : No
Color range : Limited
Color primaries : BT.2020
Transfer characteristics : PQ
Matrix coefficients : BT.2020 non-constant
Mastering display color pri : R: x=0.680000 y=0.320000, G: x=0.265000 y=0.690000, B: x=0.150000 y=0.060000, White point: x=0.312700 y=0.329000
Mastering display luminance : min: 0.0050 cd/m2, max: 1000.0000 cd/m2

Audio #1
ID : 2
Format : AC-3
Format/Info : Audio Coding 3
Format settings, Endianness : Big
Codec ID : A_AC3
Duration : 1 h 46 min
Bit rate mode : Constant
Bit rate : 640 kb/s
Channel(s) : 6 channels
Channel positions : Front: L C R, Side: L R, LFE
Sampling rate : 48.0 kHz
Frame rate : 31.250 FPS (1536 SPF)
Bit depth : 16 bits
Compression mode : Lossy
Stream size : 490 MiB (1%)
Title : Dub [License]
Language : Russian
Service kind : Complete Main
Default : Yes
Forced : No

Audio #2
ID : 3
Format : TrueHD
Format profile : TrueHD+Atmos / TrueHD
Codec ID : A_TRUEHD
Duration : 1 h 46 min
Bit rate mode : Variable
Bit rate : 4 131 kb/s
Maximum bit rate : 7 710 kb/s
Channel(s) : Object Based / 8 channels
Channel positions : Object Based / Front: L C R, Side: L R, Back: L R, LFE
Sampling rate : / 48.0 kHz
Frame rate : 1 200.000 FPS (40 SPF)
Compression mode : Lossless
Stream size : 3.09 GiB (6%)
Title : Original
Language : English
Default : No
Forced : No

Audio #3
ID : 4
Format : AC-3
Format/Info : Audio Coding 3
Format settings, Endianness : Big
Codec ID : A_AC3
Duration : 1 h 46 min
Bit rate mode : Constant
Bit rate : 640 kb/s
Channel(s) : 6 channels
Channel positions : Front: L C R, Side: L R, LFE
Sampling rate : 48.0 kHz
Frame rate : 31.250 FPS (1536 SPF)
Bit depth : 16 bits
Compression mode : Lossy
Stream size : 489 MiB (1%)
Language : English
Service kind : Complete Main
Default : No
Forced : No

Text #1
ID : 5
Format : UTF-8
Codec ID : S_TEXT/UTF8
Codec ID/Info : UTF-8 Plain Text
Duration : 1 h 44 min
Bit rate : 4 b/s
Count of elements : 75
Stream size : 3.56 KiB (0%)
Title : Forced
Language : Russian
Default : Yes
Forced : No

Text #2
ID : 6
Format : UTF-8
Codec ID : S_TEXT/UTF8
Codec ID/Info : UTF-8 Plain Text
Duration : 1 h 44 min
Bit rate : 56 b/s
Count of elements : 916
Stream size : 43.0 KiB (0%)
Title : Full
Language : Russian
Default : No
Forced : No

Text #3
ID : 7
Format : UTF-8
Codec ID : S_TEXT/UTF8
Codec ID/Info : UTF-8 Plain Text
Duration : 1 h 34 min
Bit rate : 35 b/s
Count of elements : 881
Stream size : 24.6 KiB (0%)
Title : Full
Language : English
Default : No
Forced : No

Text #4
ID : 8
Format : UTF-8
Codec ID : S_TEXT/UTF8
Codec ID/Info : UTF-8 Plain Text
Duration : 1 h 37 min
Bit rate : 39 b/s
Count of elements : 883
Stream size : 28.2 KiB (0%)
Title : SDH
Language : English
Default : No
Forced : No

Menu
00:00:00.000 : en:00:00:00.000
00:08:09.322 : en:00:08:09.322
00:14:39.962 : en:00:14:39.962
00:21:26.494 : en:00:21:26.494
00:28:02.681 : en:00:28:02.681
00:34:13.218 : en:00:34:13.218
00:39:27.615 : en:00:39:27.615
00:43:57.802 : en:00:43:57.802
00:51:49.815 : en:00:51:49.815
00:55:19.066 : en:00:55:19.066
01:01:06.872 : en:01:01:06.872
01:07:49.732 : en:01:07:49.732
01:14:36.972 : en:01:14:36.972
01:20:31.744 : en:01:20:31.744
01:27:46.178 : en:01:27:46.178
01:33:41.407 : en:01:33:41.407
01:38:00.083 : en:01:38:00.083

piratbit.pw



Скачать Призрак в доспехах через торрент http://s018.radikal.ru/i521/1711/d7/bf778865533e.jpg Скачать фильм Призрак в доспехах через торрент бесплантно в хорошем качестве Описание: Светлое будущее, где что-то пошло не так. Мир погряз в Интернете и передовом протезировании. Каждое человеческое существо считает ... 8.1 10 11
Info! Золотая раздача, скачанное не засчитывается.
Торрент: Зарегистрирован [2017-11-07 15:40] · скачан: 165 раз
Статус: √ проверено
Размер: 51.87 GB
Как cкачать? Как скачать Призрак в доспехах через торрент | qTorrent

% Раздел Тема Автор DL S | L
Ultra HD (UHD: 2K, 4K, 8K) — видео сверхвысокой чёткости [ 58.42 GB ] Призрак в доспехах / Ghost in the Shell [2017 UHD BDRemux 2160p] DUB + AVO [Ю. Немахов] sheker187 Скачать
1 | 0
Фильмы 2017 [DVDrip, WEB-DLRip, HDrip] (DUB, MVO) [ 746 MB ] Призрак в доспехах / Ghost in the Shell [2017 WEB-DLRip] bober100 Скачать
1 | 0
Ultra HD (UHD: 2K, 4K, 8K) — видео сверхвысокой чёткости [ 20.8 GB ] Призрак в доспехах / Ghost in the Shell [2017 UHD BDRip 2160p] [SDR] DUB sheker187 Скачать
1 | 0
Ultra HD (UHD: 2K, 4K, 8K) — видео сверхвысокой чёткости [ 12.17 GB ] Призрак в доспехах / Ghost in the Shell [2017 UHD BDRip 2160p] DUB [] sheker187 Скачать
2 | 0
Аниме (HD DVD и Blu-ray) [ 57.12 GB ] Призрак в доспехах / Koukaku Kidoutai / Ghost in the Shell [1995 аниме мультфильм UHD BDRemux 2160p] DUB + 2xDVO + 2xAVO sheker187 Скачать
1 | 0
Ultra HD (UHD: 2K, 4K, 8K) — видео сверхвысокой чёткости [ 55.19 GB ] Призрак в доспехах / Ghost in the Shell [2017 UHD BDRemux 2160p] DUB + AVO [Ю. Немахов] sheker187 Скачать
2 | 0
Аниме [DVDrip, WEB-DLRip, HDrip] [ 747 MB ] Призрак в доспехах / Kôkaku Kidôtai / Ghost in the Shell [1995 аниме мультфильм BDRip-AVC] [Dub DVO] sokol_ok Скачать
2 | 0

28-11-2019 20:33  

Отключить всю рекламу на сайте

    Дорогой пользователь! Огромная просьба, поблагодарите релизера, оцените раздачу и оставьте свои комментарий, если Вы скачали Призрак в доспехах через торрент бесплатно! Внесите свою лепту в развитие PiratBit!
    Комментировать посты могут только пользователи прошедшие не сложную регистрацию
    Показать сообщения:    

    Призрак в доспехах через торрент
    Скачать бесплатно Призрак в доспехах
    Призрак в доспехах скачать торрент
    Призрак в доспехах смотреть онлайн
    Cкачать фильм Призрак в доспехах бесплатно
    Призрак в доспехах скачать торрент в хорошем качестве
    Призрак в доспехах смотреть онлайн бесплатно в хорошем качестве


    Вы не можете начинать темы
    Вы не можете отвечать на сообщения
    Вы не можете редактировать свои сообщения
    Вы не можете удалять свои сообщения
    Вы не можете голосовать в опросах
    Вы не можете прикреплять файлы к сообщениям
    Вы можете скачивать файлы