Ссылка на приватное зеркало всего за 1$. Внимание количество ограничено!!!

iTunes

iTunes

iTunes

1

iTunes

iTunes

iTunes

iTunes

iTunes

30
pack

Новость дня

ВАЖНО

!!Акция!!

Alien_RageХит недели

RePack

Resident Evil 21

ИГРА 18+

pack

RePack

jed

!!Акция!!

Alien_Rage

RePack

fifa19

RePack

Assassins Creed: Odyssey

RePack

NEED FOR SPEED™ PAYBACK

4 сезон

9 сезон

Бесстыжие 9 сезон

Все сериалы

все сериалы на PB.wtf

RePack

FAR CRY 5
  

Малыш на драйве / Baby Driver (Эдгар Райт) [2017, Триллер, криминал, музыка, UHD BDRemux 2160p] DUB [Лицензия] piratbit.pw

Малыш на драйве через торрент piratbit.pw

Размер: 42.79 GB | Добавлен: 2 года 5 мес. назад | Торрент скачан:103 раза
Скачать  

07-11-2017 11:02 Малыш на драйве Скачать торрент  

Малыш на драйве / Baby Driver«Сколько треков нужно для хорошего ограбления?»Год выпуска: 2017
Страна: Великобритания , США
Жанр: Триллер, криминал, музыка
Продолжительность: 01:52:40
Перевод: Дублированный | Лицензия
Субтитры: Русские (forced, full), английские
Реклама: Отсутствует

Режиссер: Эдгар Райт

rating

В ролях:

Энсел Элгорт, Джон Бернтал, Джон Хэмм, Эйса Гонсалес, Лили Джеймс, Морган Браун, Кевин Спейси, С.Дж. Джонс

Описание:

Юный водитель по кличке «Малыш» (Энсел Элгорт) работает на профессиональных грабителей банков. В один момент он внезапно оказывается втянутым в одно из ограблений, которое, к его глубокому сожалению, выходит из-под контроля, и все начинает идти совсем не по плану. Американский боевик британского режиссера Эдгара Райта, известного по своей работе над фильмом «Зомби по имени Шон», сочетает в себе не только жанр боевика, но и элементы комедии, и даже триллера. Классический сюжет о неудачном ограблении вероятнее всего будет интересен поклонникам фильмов об охотниках за легкой наживой.


Качество: UHD BDRemux 2160p
Формат: MKV
Видео кодек: HEVC
Аудио кодек: AC3

Видео: MPEG-H HEVC HDR Video, 3840x2160, 48.3 Mbit/s, 23.976 fps
Аудио#1: 48 kHz, AC3, 5.1, 640 Kbps | Дублированный | RUS |
Аудио#2: 48 kHz, TrueHD, 7.1, 4769 Kbps | Оригинал | ENG |
Аудио#3: 48 kHz, AC3, 5.1, 640 Kbps | Оригинал | ENG |

Релиз от:
скриншот  скриншот  скриншот  скриншот  скриншот  

General
Unique ID : 234415543582221187748889945932625875994 (0xB05ACA9E87C4AD6B8F628EE23388141A)
Complete name : G:VideoSSDBaby.Driver.2017.Lic.BDREMUX.2160p.4K.UltraHD.HEVC.HDR.ExKinoRay.mkv
Format : Matroska
Format version : Version 4 / Version 2
File size : 42.8 GiB
Duration : 1 h 52 min
Overall bit rate mode : Variable
Overall bit rate : 54.4 Mb/s
Movie name : Release by ExKinoRay
Encoded date : UTC 2017-11-06 20:27:32
Writing application : mkvmerge v17.0.0 ('Be Ur Friend') 64-bit
Writing library : libebml v1.3.5 + libmatroska v1.4.8
Cover : Yes
Attachments : cover.jpg

Video
ID : 1
Format : HEVC
Format/Info : High Efficiency Video Coding
Format profile : Main 10@L5.1@High
Codec ID : V_MPEGH/ISO/HEVC
Duration : 1 h 52 min
Bit rate : 48.3 Mb/s
Width : 3 840 pixels
Height : 2 160 pixels
Display aspect ratio : 16:9
Frame rate mode : Constant
Frame rate : 23.976 (24000/1001) FPS
Color space : YUV
Chroma subsampling : 4:2:0 (Type 2)
Bit depth : 10 bits
Bits/(Pixel*Frame) : 0.243
Stream size : 38.0 GiB (89%)
Language : English
Default : Yes
Forced : No
Color range : Limited
Color primaries : BT.2020
Transfer characteristics : PQ
Matrix coefficients : BT.2020 non-constant
Mastering display color pri : R: x=0.680000 y=0.320000, G: x=0.265000 y=0.690000, B: x=0.150000 y=0.060000, White point: x=0.312700 y=0.329000
Mastering display luminance : min: 0.0050 cd/m2, max: 4000.0000 cd/m2
Maximum Content Light Level : 4491 cd/m2
Maximum Frame-Average Light : 315 cd/m2

Audio #1
ID : 2
Format : AC-3
Format/Info : Audio Coding 3
Format settings, Endianness : Big
Codec ID : A_AC3
Duration : 1 h 52 min
Bit rate mode : Constant
Bit rate : 640 kb/s
Channel(s) : 6 channels
Channel positions : Front: L C R, Side: L R, LFE
Sampling rate : 48.0 kHz
Frame rate : 31.250 FPS (1536 SPF)
Bit depth : 16 bits
Compression mode : Lossy
Stream size : 516 MiB (1%)
Title : Dub
Language : Russian
Service kind : Complete Main
Default : Yes
Forced : No

Audio #2
ID : 3
Format : TrueHD
Format profile : TrueHD+Atmos / TrueHD
Codec ID : A_TRUEHD
Duration : 1 h 52 min
Bit rate mode : Variable
Bit rate : 4 769 kb/s
Maximum bit rate : 7 815 kb/s
Channel(s) : Object Based / 8 channels
Channel positions : Object Based / Front: L C R, Side: L R, Back: L R, LFE
Sampling rate : / 48.0 kHz
Frame rate : 1 200.000 FPS (40 SPF)
Compression mode : Lossless
Stream size : 3.75 GiB (9%)
Title : Original
Language : English
Default : No
Forced : No

Audio #3
ID : 4
Format : AC-3
Format/Info : Audio Coding 3
Format settings, Endianness : Big
Codec ID : A_AC3
Duration : 1 h 52 min
Bit rate mode : Constant
Bit rate : 640 kb/s
Channel(s) : 6 channels
Channel positions : Front: L C R, Side: L R, LFE
Sampling rate : 48.0 kHz
Frame rate : 31.250 FPS (1536 SPF)
Bit depth : 16 bits
Compression mode : Lossy
Stream size : 516 MiB (1%)
Language : English
Service kind : Complete Main
Default : No
Forced : No

Text #1
ID : 5
Format : UTF-8
Codec ID : S_TEXT/UTF8
Codec ID/Info : UTF-8 Plain Text
Duration : 1 h 46 min
Bit rate : 1 b/s
Count of elements : 51
Stream size : 1.50 KiB (0%)
Title : Forced
Language : Russian
Default : Yes
Forced : No

Text #2
ID : 6
Format : UTF-8
Codec ID : S_TEXT/UTF8
Codec ID/Info : UTF-8 Plain Text
Duration : 1 h 51 min
Bit rate : 96 b/s
Count of elements : 1602
Stream size : 78.7 KiB (0%)
Title : Full
Language : Russian
Default : No
Forced : No

Text #3
ID : 7
Format : UTF-8
Codec ID : S_TEXT/UTF8
Codec ID/Info : UTF-8 Plain Text
Duration : 1 h 51 min
Bit rate : 79 b/s
Count of elements : 2275
Stream size : 65.1 KiB (0%)
Title : SDH
Language : English
Default : No
Forced : No

Menu
00:00:00.000 : en:00:00:00.000
00:09:11.050 : en:00:09:11.050
00:13:30.476 : en:00:13:30.476
00:20:58.174 : en:00:20:58.174
00:25:17.599 : en:00:25:17.599
00:33:07.903 : en:00:33:07.903
00:43:43.246 : en:00:43:43.246
00:48:15.643 : en:00:48:15.643
00:53:39.550 : en:00:53:39.550
00:58:51.903 : en:00:58:51.903
01:05:23.545 : en:01:05:23.545
01:11:34.081 : en:01:11:34.081
01:19:17.002 : en:01:19:17.002
01:30:30.675 : en:01:30:30.675
01:38:04.170 : en:01:38:04.170
01:43:30.413 : en:01:43:30.413

piratbit.pw



Скачать Малыш на драйве через торрент http://s015.radikal.ru/i331/1711/75/ad0af7471f7f.jpg Скачать фильм Малыш на драйве через торрент бесплантно в хорошем качестве Описание: Юный водитель по кличке «Малыш» (Энсел Элгорт) работает на профессиональных грабителей банков. В один момент он внезапно ... 8.5 10 6
Торрент: Зарегистрирован [2017-11-07 11:02] · скачан: 103 раз
Статус: √ проверено
Размер: 42.79 GB
Как cкачать? Как скачать Малыш на драйве через торрент | qTorrent

% Раздел Тема Автор DL S | L
Ultra HD (UHD: 2K, 4K, 8K) — видео сверхвысокой чёткости [ 49.02 GB ] Малыш на драйве / Baby Driver [2017 UHD BDRemux 2160p] DUB [ BD CEE] + 3xAVO sheker187 Скачать
2 | 0
Фильмы (Blu-ray, BD-Remux, HDDVD) [ 22.62 GB ] Малыш на драйве / Baby Driver [2017 музыка BD Remux 1080p] AVO [М.Чадов] +MVO [Paradox & Omskbird] +DUB [] bober100 Скачать
1 | 0
Ultra HD (UHD: 2K, 4K, 8K) — видео сверхвысокой чёткости [ 53.73 GB ] Малыш на драйве / Baby Driver [2017 UHD Blu-ray 2160p] - [ BD CEE] sheker187 Скачать
1 | 0
Фильмы 2017 [DVDrip, WEB-DLRip, HDrip] (DUB, MVO) [ 760 MB ] Малыш на драйве / Baby Driver [2017 BDRip-AVC] sokol_ok Скачать
2 | 0
Фильмы 2017 [DVDrip, WEB-DLRip, HDrip] (DUB, MVO) [ 1.46 GB ] Малыш на драйве / Baby Driver [2017 BDRip] - [] Twi7ter Скачать
3 | 0
Фильмы [HD 720p, 1080p] (Хороший звук DUB, MVO) [ 5 GB ] Малыш на драйве / Baby Driver [2017 музыка BDRip 720p] DUB+MVO [] bober100 Скачать
1 | 0
Фильмы 2017 [DVDrip, WEB-DLRip, HDrip] (DUB, MVO) [ 3.08 GB ] Малыш на драйве / Baby Driver [2017 музыка BDRip-AVC] DUB+MVO bober100 Скачать
1 | 0

28-11-2019 20:33  

Отключить всю рекламу на сайте

    Дорогой пользователь! Огромная просьба, поблагодарите релизера, оцените раздачу и оставьте свои комментарий, если Вы скачали Малыш на драйве через торрент бесплатно! Внесите свою лепту в развитие PiratBit!
    Комментировать посты могут только пользователи прошедшие не сложную регистрацию
    Показать сообщения:    

    Малыш на драйве через торрент
    Скачать бесплатно Малыш на драйве
    Малыш на драйве скачать торрент
    Малыш на драйве смотреть онлайн
    Cкачать фильм Малыш на драйве бесплатно
    Малыш на драйве скачать торрент в хорошем качестве
    Малыш на драйве смотреть онлайн бесплатно в хорошем качестве


    Вы не можете начинать темы
    Вы не можете отвечать на сообщения
    Вы не можете редактировать свои сообщения
    Вы не можете удалять свои сообщения
    Вы не можете голосовать в опросах
    Вы не можете прикреплять файлы к сообщениям
    Вы можете скачивать файлы