Ссылка на приватное зеркало нашего сайта всего за 1$. Внимание количество ограничено!!!

2 сезон

iTunes

iTunes

1

iTunes

iTunes

iTunes

WEBRip

iTunes

30
pack

Вам бонус

ВАЖНО

!!Акция!!

Alien_RageХит недели

RePack

Horizon Zero Dawn

ИГРА 18+

pack

RePack

jed

!!Акция!!

Alien_Rage

RePack

fifa19

RePack

Assassins Creed: Odyssey

RePack

NEED FOR SPEED™ PAYBACK

4 сезон

9 сезон

Бесстыжие 9 сезон

Все сериалы

все сериалы на PB.wtf

RePack

FAR CRY 5
  

Необыкновенное путешествие Мишки Стрекачёва (Илья Фрэз, Эдуард Бочаров) [1959, СССР, семейный, SATRip от AVP Studio] piratbit.pw

Необыкновенное путешествие Мишки Стрекачёва через торрент piratbit.pw

Размер: 745 MB | Добавлен: 2 года 10 мес. назад | Торрент скачан:20 раз
Скачать  

05-11-2017 09:37 Необыкновенное путешествие Мишки Стрекачёва Скачать торрент  

Необыкновенное путешествие Мишки Стрекачёва
Страна: СССР
Производство: Киностудия им. Горького

Жанр: семейный
Год выпуска: 1959
Продолжительность: 01:22:16

Перевод: Не требуется
Cубтитры: нет
Оригинальная аудиодорожка: русский

Режиссер: Илья Фрэз, Эдуард Бочаров

В ролях:
Алексей Борзунов, Лена Шептицкая, Слава Девкин, Рая Николаева, Миша Копытов, Саша Вдовин, Константин Сорокин, Виктор Хохряков, Михаил Трояновский, Георгий Гумилевский, Валерий Носик, Пётр Алейников, Татьяна Пельтцер, Валентина Телегина, Евгений Кудряшёв, Алексей Грибов...
Об актёрах подробней

Описание:
Однажды на заводе изготовили сверх плана партию комбайнов. Их решили отправить в подшефный совхоз на целину. Группа учеников ремесленного училища, обучавшаяся на этом заводе, завоевала честь сопровождать эти комбайны. Мишка Стрекачёв (Алексей Борзунов), единственный человек из группы, которого за провинность не взяли на целину, совершил новый проступок. Он снял с нового комбайна шестерёнку, желая выручить подругу, «запоровшую» деталь.

Источник: DVB
Качество видео: SATRip
Формат видео: AVI

Видео: 640x480 (4:3), 25 fps, XviD ~ 1128 kbps avg, 0.147 bit/pixel
Аудио: 48 kHz, MP3 2.0, 128 kbps

Раздача от:
Общее
Полное имя : Neobyknovennoe.puteshestvie.Mishki.Strekacheva.1959.SATRip-745_[New-team]_by_AVP_Studio.avi
Формат : AVI
Формат/Информация : Audio Video Interleave
Размер файла : 745 Мбайт
Продолжительность : 1 ч. 22 м.
Общий поток : 1266 Кбит/сек
Программа кодирования : VirtualDubMod 1.5.10.3 | www.virtualdub-fr.org || (build 2550/release)
Библиотека кодирования : VirtualDubMod build 2550/release

Видео
Идентификатор : 0
Формат : MPEG-4 Visual
Профиль формата : Advanced Simple@L5
Параметр BVOP формата : 1
Параметр QPel формата : Нет
Параметр GMC формата : Без точки перехода
Параметр матрицы формата : Выборочная
Идентификатор кодека : XVID
Идентификатор кодека/Подсказка : XviD
Продолжительность : 1 ч. 22 м.
Битрейт : 1128 Кбит/сек
Ширина : 640 пикселей
Высота : 480 пикселей
Соотношение сторон : 4:3
Частота кадров : 25,000 кадров/сек
Цветовое пространство : YUV
Субдискретизация насыщенности : 4:2:0
Битовая глубина : 8 бит
Тип развёртки : Прогрессивная
Метод сжатия : С потерями
Бит/(Пиксели*Кадры) : 0.147
Размер потока : 664 Мбайт (89%)
Библиотека кодирования : XviD 73

Аудио
Идентификатор : 1
Формат : MPEG Audio
Версия формата : Version 1
Профиль формата : Layer 3
Идентификатор кодека : 55
Идентификатор кодека/Подсказка : MP3
Продолжительность : 1 ч. 22 м.
Вид битрейта : Постоянный
Битрейт : 128 Кбит/сек
Каналы : 2 канала
Частота : 48,0 КГц
Метод сжатия : С потерями
Размер потока : 75,3 Мбайт (10%)
Выравнивание : Соединение по промежуткам
Продолжительность промежутка : 40 мс. (1,00 видеокадр)
Время предзагрузки промежутка : 504 мс.
Библиотека кодирования : LAME3.99r
Настройки программы : -m s -V 4 -q 2 -lowpass 17 -b 128
piratbit.pw



Скачать Необыкновенное путешествие Мишки Стрекачёва через торрент http://s019.radikal.ru/i627/1711/78/1985481de8b4.png Скачать фильм Необыкновенное путешествие Мишки Стрекачёва через торрент бесплантно в хорошем качестве Описание:Однажды на заводе изготовили сверх плана партию комбайнов. Их решили отправить в подшефный совхоз на целину. Группа учеников ... 5 10 1
Info! Золотая раздача, скачанное не засчитывается.
Торрент: Зарегистрирован [2017-11-05 09:37] · скачан: 20 раз
Статус: √ проверено
Размер: 745 MB
Как cкачать? Как скачать Необыкновенное путешествие Мишки Стрекачёва через торрент | qTorrent

% Раздел Тема Автор DL S | L
Детские отечественные фильмы [ 1.09 GB ] Необыкновенное путешествие Мишки Стрекачёва [1959 СССР SATRip от AVP Studio] AVP Studio Скачать
2 | 0
Детские отечественные фильмы [ 1.09 GB ] Необыкновенное путешествие Мишки Стрекачёва [1959 СССР SATRip-AVC от AVP Studio] AVP Studio Скачать
1 | 0

28-11-2019 20:33  

Отключить всю рекламу на сайте

05-11-2017 11:19 Необыкновенное путешествие Мишки Стрекачёва Скачать торрент  

Топик был перенесен из форума Кино СССР в форум Детские отечественные фильмы


bober100piratbit.pw



    Дорогой пользователь! Огромная просьба, поблагодарите релизера, оцените раздачу и оставьте свои комментарий, если Вы скачали Необыкновенное путешествие Мишки Стрекачёва через торрент бесплатно! Внесите свою лепту в развитие PiratBit!
    Комментировать посты могут только пользователи прошедшие не сложную регистрацию
    Показать сообщения:    

    Необыкновенное путешествие Мишки Стрекачёва через торрент
    Скачать бесплатно Необыкновенное путешествие Мишки Стрекачёва
    Необыкновенное путешествие Мишки Стрекачёва скачать торрент
    Необыкновенное путешествие Мишки Стрекачёва смотреть онлайн
    Cкачать фильм Необыкновенное путешествие Мишки Стрекачёва бесплатно
    Необыкновенное путешествие Мишки Стрекачёва скачать торрент в хорошем качестве
    Необыкновенное путешествие Мишки Стрекачёва смотреть онлайн бесплатно в хорошем качестве


    Вы не можете начинать темы
    Вы не можете отвечать на сообщения
    Вы не можете редактировать свои сообщения
    Вы не можете удалять свои сообщения
    Вы не можете голосовать в опросах
    Вы не можете прикреплять файлы к сообщениям
    Вы можете скачивать файлы