Marvel's Avengers Deluxe Edition (супер цена) 159р. Внимание количество ограничено!!!

2 сезон

iTunes

iTunes

1

iTunes

iTunes

iTunes

WEBRip

iTunes

30
pack

Новость дня

ВАЖНО

!!Акция!!

Alien_RageХит недели

RePack

Horizon Zero Dawn

ИГРА 18+

pack

RePack

jed

!!Акция!!

Alien_Rage

RePack

fifa19

RePack

Assassins Creed: Odyssey

RePack

NEED FOR SPEED™ PAYBACK

4 сезон

9 сезон

Бесстыжие 9 сезон

Все сериалы

все сериалы на PB.wtf

RePack

FAR CRY 5
  

Заложники (Резо Гигинеишвили) [2017, драма, триллер, биография, история, WEB-DL 720p] [iTunes] piratbit.pw

Заложники через торрент piratbit.pw

Размер: 3.26 GB | Добавлен: 2 года 10 мес. назад | Торрент скачан:112 раз
Скачать  

02-11-2017 04:58 Заложники Скачать торрент  

Заложники
Год выпуска: 2017
Страна: Россия, Грузия
Жанр: драма, триллер, биография, история
Продолжительность: 01:43:49
Перевод: Русский | iTunes
Субтитры: отсутствуют

Режиссер: Резо Гигинеишвили

rating

В ролях:

Иракли Квирикадзе, Тинатин Далакишвили, Гига Датиашвили, Гиорги Грдзелидзе, Георгий Табидзе, Гиорги Хурцилава, Вахтанг Чачанидзе, Екатерина Калатозишвили, Бека Лемонджава, Мераб Нинидзе

Описание:

Начало 80-х. Советская Грузия. Всего несколько лет до распада Советского Союза. Молодые люди из уважаемых грузинских семей ищут себя в условиях закрытой системы. Музыка Beatles, джинсы, американские сигареты, положение в обществе, гарантированное будущее… У них, казалось, было все, кроме одного — свободы. Цена этой свободы окажется слишком высока… Подлинная история о событиях 1983 года, когда шесть парней и одна девушка пытались угнать самолет с целью побега из СССР.

Качество: WEB-DL 720p
Формат: MKV
Видео кодек: H.264
Аудио кодек: AC3

Видео: MPEG-4 AVC, 4100 Кбит/с, 1280x480
Аудио#1: Русский (AC3, 6 ch, 384 Кбит/с)
скриншот   скриншот   скриншот  

Общее
Уникальный идентификатор : 183738909518438236096039643217490202188 (0x8A3AD3A7CAE7113CB41B96EBFF41CE4C)
Полное имя : C:\Zal0zhnikI.2O17.O.WEB-DL.72Op.mkv
Формат : Matroska
Версия формата : Version 2
Размер файла : 3,26 Гбайт
Продолжительность : 1 ч. 43 м.
Общий поток : 4492 Кбит/сек
Дата кодирования : UTC 2017-11-01 21:06:12
Программа кодирования : mkvmerge v8.3.0 ('Over the Horizon') 64bit
Библиотека кодирования : libebml v1.3.1 + libmatroska v1.4.2

Видео
Идентификатор : 1
Формат : AVC
Формат/Информация : Advanced Video Codec
Профиль формата : Main@L3.1
Параметр CABAC формата : Нет
Параметр ReFrames формата : 2 кадра
Идентификатор кодека : V_MPEG4/ISO/AVC
Продолжительность : 1 ч. 43 м.
Битрейт : 4106 Кбит/сек
Ширина : 1280 пикселей
Высота : 480 пикселей
Соотношение сторон : 2,667
Режим частоты кадров : Постоянный
Частота кадров : 24,000 кадра/сек
Цветовое пространство : YUV
Субдискретизация насыщенности : 4:2:0
Битовая глубина : 8 бит
Тип развёртки : Прогрессивная
Бит/(Пиксели*Кадры) : 0.278
Размер потока : 2,98 Гбайт (91%)
Язык : English
Default : Да
Forced : Нет
Цветовой диапазон : Limited
Основные цвета : BT.709
Характеристики трансфера : BT.709
Коэффициенты матрицы : BT.709

Аудио
Идентификатор : 2
Формат : AC-3
Формат/Информация : Audio Coding 3
Расширение режима : CM (complete main)
Параметр Endianness формата : Big
Идентификатор кодека : A_AC3
Продолжительность : 1 ч. 43 м.
Вид битрейта : Постоянный
Битрейт : 384 Кбит/сек
Каналы : 6 каналов
Расположение каналов : Front: L C R, Side: L R, LFE
Частота : 48,0 КГц
Частота кадров : 31,250 кадров/сек (1536 spf)
Метод сжатия : С потерями
Размер потока : 285 Мбайт (9%)
Язык : Russian
Default : Да
Forced : Нет

Меню
00:00:00.000 : en:Глава 1
00:04:44.291 : en:Глава 2
00:11:06.291 : en:Глава 3
00:16:56.791 : en:Глава 4
00:22:46.541 : en:Глава 5
00:27:36.624 : en:Глава 6
00:34:28.040 : en:Глава 7
00:38:45.873 : en:Глава 8
00:45:03.039 : en:Глава 9
00:52:34.414 : en:Глава 10
00:56:33.580 : en:Глава 11
01:02:31.621 : en:Глава 12
01:10:06.746 : en:Глава 13
01:17:08.912 : en:Глава 14
01:23:19.787 : en:Глава 15
01:31:24.912 : en:Глава 16

piratbit.pw



Скачать Заложники через торрент http://i89.fastpic.ru/big/2017/1102/da/e64c088a374c8e1accef16653ca987da.jpg Скачать фильм Заложники через торрент бесплантно в хорошем качестве Описание: Начало 80-х. Советская Грузия. Всего несколько лет до распада Советского Союза. Молодые люди из уважаемых грузинских семей ищут ... 8.7 10 7
Торрент: Зарегистрирован [2017-11-02 04:58] · скачан: 112 раз
Статус: √ проверено
Размер: 3.26 GB
Как cкачать? Как скачать Заложники через торрент | qTorrent

% Раздел Тема Автор DL S | L
Зарубежные сериалы [ 16.91 GB ] В заложниках / Gidseltagningen / Below the Surface / Сезон: 2 / Серии: 1-8 из 8 [2019 WEB-DL 1080p] [MVO] killermax2013 Скачать
1 | 0
Зарубежные сериалы [ 12.27 GB ] В заложниках / Gidseltagningen / Below the Surface / Сезон: 2 / Серии: 1-8 из 8 [2019 WEB-DL 720p] [MVO] killermax2013 Скачать
1 | 0
Зарубежные сериалы [ 6.83 GB ] В заложниках / Gidseltagningen / Below the Surface / Сезон: 1 / Серии: 1-8 из 8 [2017 WEB-DLRip 720p] [MVO] killermax2013 Скачать
1 | 0
Наши сериалы [ 3.26 GB ] Заложники / Серии: 1-2 из 2 [2019 Мело WEB-DL 1080p] bober100 Скачать
1 | 0
Наши сериалы [ 1.03 GB ] Заложники / Серии: 1-2 из 2 [2019 SATRip-AVC] aleksan55 Скачать
1 | 0
Фантастика [ 944 MB ] Владимир Сухинин - Виктор Глухов 7. Заложник долга и чести [Горбунов Сергей Андрей М_ 2018 128 kbps MP3] bober100 Скачать
1 | 0
Зарубежные сериалы [ 13.93 GB ] В заложниках / Gidseltagningen / Сезон: 1 / Серии: 1-8 из 8 [2017 WEB-DLRip 1080p] [MVO] DEVI Скачать
1 | 0

28-11-2019 20:33  

Отключить всю рекламу на сайте

02-11-2017 16:00 Заложники Скачать торрент  

актерский состав похоже на семейный подряд piratbit.pw



    Дорогой пользователь! Огромная просьба, поблагодарите релизера, оцените раздачу и оставьте свои комментарий, если Вы скачали Заложники через торрент бесплатно! Внесите свою лепту в развитие PiratBit!
    Комментировать посты могут только пользователи прошедшие не сложную регистрацию
    Показать сообщения:    

    Заложники через торрент
    Скачать бесплатно Заложники
    Заложники скачать торрент
    Заложники смотреть онлайн
    Cкачать фильм Заложники бесплатно
    Заложники скачать торрент в хорошем качестве
    Заложники смотреть онлайн бесплатно в хорошем качестве


    Вы не можете начинать темы
    Вы не можете отвечать на сообщения
    Вы не можете редактировать свои сообщения
    Вы не можете удалять свои сообщения
    Вы не можете голосовать в опросах
    Вы не можете прикреплять файлы к сообщениям
    Вы можете скачивать файлы