1 сезон

1 сезон

iTunes

1

КиноПоиск HD

Кинопоиск HD

iTunes

13

1 сезон

RePack

30

Новинка

ВАЖНО

ИГРА 18+

pack

RePack

MK11
pack

Легкие деньги

RePack

jed

RePack

fifa19

RePack

RDR2

RePack

NEED FOR SPEED™ PAYBACK

4 сезон

9 сезон

Бесстыжие 9 сезон

Все сериалы

все сериалы на PB.wtf

RePack

FAR CRY 5
  
Magnet ссылка

Водила / Wheelman (Джереми Раш) [2017, боевик, триллер, WEBRip 1080p] [AVO] (М.Яроцкий (*Kuberpunk*)) piratbit.pw

Водила через торрент piratbit.pw

Размер: 3.28 GB | Добавлен: 3 года 5 мес. назад | Торрент скачан:67 раз
Скачать  

01-11-2017 13:05 Водила Скачать торрент  

Водила / Wheelman
Год выхода: 2017
Жанр: боевик, триллер
Выпущено: США
Продолжительность: 01:22:05
Перевод: Авторский (одноголосый) | Михаил Яроцкий (*Kuberpunk*)
Субтитры: английские
Реклама: Полностью отсутствует!

Режиссер: Джереми Раш

В ролях: Фрэнк Грилло, Кэйтлин Кармайкл, Гаррет Диллахант, Венди Мониз, Джон Ченатьемпо, Слэйн, Уильям Ксифарас, Прешес Уайт, Сет Айотт, Майк Фиерро

О фильме: Водитель, работающий на преступные группировки, после не очень гладко прошедшего ограбления вынужден спасаться от преследователей в машине с украденными деньгами.



Качество: WEBRip 1080p
Формат: MKV
Видео: AVC, 1920x802, 4769 kb/s, 23,976 fps
Аудио: 48.0 kHz, AC3, 6 ch, 448 Kbps - AVO
Аудио: 48.0 kHz, AC3, 6 ch, 384 Kbps - ENG

Цитата:

перевод Михаила Яроцкого доступен благодаря: mv73, J. Green, marveltm, Старый, 7654, Юрий Деточкин, nortonn, СерП, Ananerbе, mestereo2110, kokaino1987, red190. Работа со звуком от mihaildns.

General
Unique ID : 178294908076104246969772757080259111920 (0x862259A94CA5AC0ABF6240B631C72BF0)
Complete name : E:\INTERNET\Wheelman.2017.WEBRip.1080p.AVO.Kyberpunk.mkv
Format : Matroska
Format version : Version 4 / Version 2
File size : 3.28 GiB
Duration : 1 h 22 min
Overall bit rate : 5 714 kb/s
Encoded date : UTC 2017-11-01 06:54:42
Writing application : mkvmerge v8.3.0 ('Over the Horizon') 64bit
Writing library : libebml v1.3.1 + libmatroska v1.4.2

Video
ID : 1
Format : AVC
Format/Info : Advanced Video Codec
Format profile : High@L4.1
Format settings : CABAC / 5 Ref Frames
Format settings, CABAC : Yes
Format settings, RefFrames : 5 frames
Codec ID : V_MPEG4/ISO/AVC
Duration : 1 h 22 min
Bit rate : 4 769 kb/s
Width : 1 920 pixels
Height : 802 pixels
Display aspect ratio : 2.40:1
Frame rate mode : Constant
Frame rate : 23.976 (24000/1001) FPS
Color space : YUV
Chroma subsampling : 4:2:0
Bit depth : 8 bits
Scan type : Progressive
Bits/(Pixel*Frame) : 0.129
Stream size : 2.73 GiB (83%)
Writing library : x264 core 152 r2851 ba24899
Encoding settings : cabac=1 / ref=5 / deblock=1:-3:-3 / analyse=0x3:0x133 / me=umh / subme=11 / psy=1 / psy_rd=1.05:0.15 / mixed_ref=1 / me_range=16 / chroma_me=1 / trellis=2 / 8x8dct=1 / cqm=0 / deadzone=21,11 / fast_pskip=0 / chroma_qp_offset=-3 / threads=12 / lookahead_threads=1 / sliced_threads=0 / nr=0 / decimate=1 / interlaced=0 / bluray_compat=0 / constrained_intra=0 / bframes=3 / b_pyramid=2 / b_adapt=2 / b_bias=0 / direct=3 / weightb=1 / open_gop=0 / weightp=2 / keyint=250 / keyint_min=24 / scenecut=40 / intra_refresh=0 / rc_lookahead=50 / rc=crf / mbtree=1 / crf=17.0 / qcomp=0.60 / qpmin=0 / qpmax=69 / qpstep=4 / ip_ratio=1.40 / aq=3:0.65
Language : English
Default : Yes
Forced : No

Audio #1
ID : 2
Format : AC-3
Format/Info : Audio Coding 3
Format settings, Endianness : Big
Codec ID : A_AC3
Duration : 1 h 22 min
Bit rate mode : Constant
Bit rate : 448 kb/s
Channel(s) : 6 channels
Channel positions : Front: L C R, Side: L R, LFE
Sampling rate : 48.0 kHz
Frame rate : 31.250 FPS (1536 SPF)
Bit depth : 16 bits
Compression mode : Lossy
Stream size : 263 MiB (8%)
Title : AVO М.Яроцкий
Language : Russian
Service kind : Complete Main
Default : Yes
Forced : Yes

Audio #2
ID : 3
Format : AC-3
Format/Info : Audio Coding 3
Format settings, Endianness : Big
Codec ID : A_AC3
Duration : 1 h 22 min
Bit rate mode : Constant
Bit rate : 384 kb/s
Channel(s) : 6 channels
Channel positions : Front: L C R, Side: L R, LFE
Sampling rate : 48.0 kHz
Frame rate : 31.250 FPS (1536 SPF)
Bit depth : 16 bits
Compression mode : Lossy
Stream size : 225 MiB (7%)
Language : English
Service kind : Complete Main
Default : No
Forced : No

Text
ID : 4
Format : UTF-8
Codec ID : S_TEXT/UTF8
Codec ID/Info : UTF-8 Plain Text
Language : English
Default : No
Forced : No

скриншот  скриншот  скриншот  
piratbit.pw



Скачать Водила через торрент http://i91.fastpic.ru/big/2017/1101/2c/2f9dd850deee5d509e9de4b44a8a682c.jpg Скачать фильм Водила через торрент бесплантно в хорошем качестве О фильме: Водитель, работающий на преступные группировки, после не очень гладко прошедшего ограбления вынужден спасаться от ... 5 10 1
Торрент: Зарегистрирован [2017-11-01 13:05] · скачан: 67 раз
Статус: T временная
Размер: 3.28 GB
Как cкачать? Как скачать Водила через торрент | UTorrent

% Раздел Тема Автор DL S | L
Фильмы 2019-2020 [DVDrip, WEB-DLRip, HDrip] (DUB, MVO) [ 1.42 GB ] Под водой / Underwater [2020 фанатастика BDRip] - Twi7ter Скачать
23 | 0
T Фильмы 2019-2020 (Звук TS, Cam, VO, DVO) [ 1.46 GB ] Под водой / Underwater [2020 фанатастика BDRip] VO [Zamez] Twi7ter Скачать
6 | 0
T Релизы по Парсеру [Игры, Сериалы и Фильмы и другое...] [ 3.11 GB ] Водила / Wheelman [2017 WEB-DL 1080p] MVO [@MUZOBOZ@] bober100 Скачать
1 | 0
T Релизы по Парсеру [Игры, Сериалы и Фильмы и другое...] [ 2.68 GB ] Водила / Wheelman [2017 WEB-DL 720p] MVO [@MUZOBOZ@] bober100 Скачать
1 | 0
T Релизы по Парсеру [Игры, Сериалы и Фильмы и другое...] [ 1.46 GB ] Водила / Wheelman [2017 WEB-DLRip] MVO [@MUZOBOZ@] bober100 Скачать
1 | 0

28-11-2019 20:33  

Отключить всю рекламу на сайте

    Дорогой пользователь! Огромная просьба, поблагодарите релизера, оцените раздачу и оставьте свои комментарий, если Вы скачали Водила через торрент бесплатно! Внесите свою лепту в развитие PiratBit!
    Комментировать посты могут только пользователи прошедшие не сложную регистрацию
    Показать сообщения:    

    Водила через торрент
    Скачать бесплатно Водила
    Водила скачать торрент
    Водила смотреть онлайн
    Cкачать фильм Водила бесплатно
    Водила скачать торрент в хорошем качестве
    Водила смотреть онлайн бесплатно в хорошем качестве


    Вы не можете начинать темы
    Вы не можете отвечать на сообщения
    Вы не можете редактировать свои сообщения
    Вы не можете удалять свои сообщения
    Вы не можете голосовать в опросах
    Вы не можете прикреплять файлы к сообщениям
    Вы можете скачивать файлы