Ссылка на приватное зеркало всего за 1$. Внимание количество ограничено!!!

iTunes

iTunes

iTunes

1

iTunes

iTunes

iTunes

iTunes

iTunes

30
pack

Новость дня

ВАЖНО

!!Акция!!

Alien_RageХит недели

RePack

Resident Evil 21

ИГРА 18+

pack

RePack

jed

!!Акция!!

Alien_Rage

RePack

fifa19

RePack

Assassins Creed: Odyssey

RePack

NEED FOR SPEED™ PAYBACK

4 сезон

9 сезон

Бесстыжие 9 сезон

Все сериалы

все сериалы на PB.wtf

RePack

FAR CRY 5
  

Спасатели Малибу / Baywatch (Сет Гордон) [2017, боевик, драма, комедия, UHD BDRemux 2160p] DUB [EXTENDED/Расширенная версия] [Лицензия] piratbit.pw

Спасатели Малибу через торрент piratbit.pw

Размер: 46.92 GB | Добавлен: 2 года 5 мес. назад | Торрент скачан:105 раз
Скачать  

01-11-2017 11:39 Спасатели Малибу Скачать торрент  

Спасатели Малибу / Baywatch
[EXTENDED/Расширенная версия]
Год выпуска: 2017
Страна: США
Жанр: боевик, драма, комедия
Продолжительность: 02:01:23
Перевод: Дублированный | Лицензия
Субтитры: Русские (forced, full), английские

Режиссер: Сет Гордон

rating

В ролях:

Дуэйн Джонсон, Зак Эфрон, Александра Даддарио, Приянка Чопра, Келли Рорбах, Ильфенеш Хадера, Джон Басс, Яхья Абдул-Марин II, Хэннибал Бёресс, Роб Хюбель

Описание:

Группа пляжных спасателей работает на побережье Тихого океана. Они всегда находятся на своем посту и охраняют отдыхающих от несчастных случаев на воде. Главный герой, опытный спасатель Митч Бьюкеннон, и его молодой коллега Мэтт Броди случайно узнают, что их пляж находится под угрозой исчезновения. Большая нефтяная компания собирается разрушить побережье, преследуя личные интересы руководства, крепко завязанные на финансах.


Качество: UHD BDRemux 2160p
Формат: MKV
Видео кодек: HEVC
Аудио кодек: AC3

Видео: MPEG-H HEVC HDR Video, 3840x2160, 49.3 Mbit/s, 23.976 fps
Аудио#1: 48 kHz, AC3, 5.1, 640 Kbps | Дублированный |RUS |
Аудио#2: 48 kHz, TrueHD, 7.1, 4684 Kbps | Оригинал | ENG |
Аудио#3: 48 kHz, AC3, 5.1, 640 Kbps | Оригинал | ENG |

Релиз от:
скриншот  скриншот  скриншот  скриншот  скриншот  

General
Unique ID : 195555817351523833245447720344345156048 (0x931EAE318DF57B84BAD6377ECFBC99D0)
Complete name : G:VideoSSDBaywatch.2017.Extended.Cut.BDREMUX.2160p.4K.UltraHD.HEVC.HDR.ExKinoRay.mkv
Format : Matroska
Format version : Version 4 / Version 2
File size : 46.9 GiB
Duration : 2 h 1 min
Overall bit rate mode : Variable
Overall bit rate : 55.3 Mb/s
Movie name : Release by ExKinoRay
Encoded date : UTC 2017-11-01 11:13:29
Writing application : mkvmerge v17.0.0 ('Be Ur Friend') 64-bit
Writing library : libebml v1.3.5 + libmatroska v1.4.8
Cover : Yes
Attachments : cover.jpg

Video
ID : 1
Format : HEVC
Format/Info : High Efficiency Video Coding
Format profile : Main 10@L5.1@High
Codec ID : V_MPEGH/ISO/HEVC
Duration : 2 h 1 min
Bit rate : 49.3 Mb/s
Width : 3 840 pixels
Height : 2 160 pixels
Display aspect ratio : 16:9
Frame rate mode : Constant
Frame rate : 23.976 (23976/1000) FPS
Original frame rate : 23.976 (24000/1001) FPS
Color space : YUV
Chroma subsampling : 4:2:0 (Type 2)
Bit depth : 10 bits
Bits/(Pixel*Frame) : 0.248
Stream size : 41.8 GiB (89%)
Language : English
Default : Yes
Forced : No
Color range : Limited
Color primaries : BT.2020
Transfer characteristics : PQ
Matrix coefficients : BT.2020 non-constant
Mastering display color pri : R: x=0.680000 y=0.320000, G: x=0.265000 y=0.690000, B: x=0.150000 y=0.060000, White point: x=0.312700 y=0.329000
Mastering display luminance : min: 0.0000 cd/m2, max: 1000.0000 cd/m2
Maximum Content Light Level : 1000 cd/m2
Maximum Frame-Average Light : 386 cd/m2

Audio #1
ID : 2
Format : AC-3
Format/Info : Audio Coding 3
Format settings, Endianness : Big
Codec ID : A_AC3
Duration : 2 h 1 min
Bit rate mode : Constant
Bit rate : 640 kb/s
Channel(s) : 6 channels
Channel positions : Front: L C R, Side: L R, LFE
Sampling rate : 48.0 kHz
Frame rate : 31.250 FPS (1536 SPF)
Bit depth : 16 bits
Compression mode : Lossy
Stream size : 556 MiB (1%)
Title : Dub [License]
Language : Russian
Service kind : Complete Main
Default : Yes
Forced : No

Audio #2
ID : 3
Format : TrueHD
Format profile : TrueHD+Atmos / TrueHD
Codec ID : A_TRUEHD
Duration : 2 h 1 min
Bit rate mode : Variable
Bit rate : 4 684 kb/s
Maximum bit rate : 7 380 kb/s
Channel(s) : Object Based / 8 channels
Channel positions : Object Based / Front: L C R, Side: L R, Back: L R, LFE
Sampling rate : / 48.0 kHz
Frame rate : 1 200.000 FPS (40 SPF)
Compression mode : Lossless
Stream size : 3.97 GiB (8%)
Title : Original
Language : English
Default : No
Forced : No

Audio #3
ID : 4
Format : AC-3
Format/Info : Audio Coding 3
Format settings, Endianness : Big
Codec ID : A_AC3
Duration : 2 h 1 min
Bit rate mode : Constant
Bit rate : 640 kb/s
Channel(s) : 6 channels
Channel positions : Front: L C R, Side: L R, LFE
Sampling rate : 48.0 kHz
Frame rate : 31.250 FPS (1536 SPF)
Bit depth : 16 bits
Compression mode : Lossy
Stream size : 556 MiB (1%)
Language : English
Service kind : Complete Main
Default : No
Forced : No

Text #1
ID : 5
Format : UTF-8
Codec ID : S_TEXT/UTF8
Codec ID/Info : UTF-8 Plain Text
Duration : 1 h 30 min
Bit rate : 1 b/s
Count of elements : 20
Stream size : 987 Bytes (0%)
Title : Forced
Language : Russian
Default : Yes
Forced : No

Text #2
ID : 6
Format : UTF-8
Codec ID : S_TEXT/UTF8
Codec ID/Info : UTF-8 Plain Text
Duration : 2 h 0 min
Bit rate : 100 b/s
Count of elements : 2023
Stream size : 88.2 KiB (0%)
Title : Full
Language : Russian
Default : No
Forced : No

Text #3
ID : 7
Format : UTF-8
Codec ID : S_TEXT/UTF8
Codec ID/Info : UTF-8 Plain Text
Duration : 1 h 54 min
Bit rate : 81 b/s
Count of elements : 2118
Stream size : 67.8 KiB (0%)
Title : Full
Language : English
Default : No
Forced : No

Text #4
ID : 8
Format : UTF-8
Codec ID : S_TEXT/UTF8
Codec ID/Info : UTF-8 Plain Text
Duration : 1 h 56 min
Bit rate : 87 b/s
Count of elements : 2414
Stream size : 74.9 KiB (0%)
Title : SDH
Language : English
Default : No
Forced : No

Menu
00:00:00.000 : en:1
00:08:54.000 : en:2
00:16:52.000 : en:3
00:20:59.000 : en:4
00:29:38.000 : en:5
00:38:00.000 : en:6
00:44:51.000 : en:7
00:50:29.000 : en:8
01:01:25.000 : en:9
01:11:43.000 : en:10
01:19:38.000 : en:11
01:28:54.000 : en:12
01:35:16.000 : en:13
01:44:24.000 : en:14
01:49:59.000 : en:15
01:54:44.000 : en:16

piratbit.pw



Скачать Спасатели Малибу через торрент http://s41.radikal.ru/i093/1711/81/7ff615e8de2f.jpg Скачать фильм Спасатели Малибу через торрент бесплантно в хорошем качестве Описание: Группа пляжных спасателей работает на побережье Тихого океана. Они всегда находятся на своем посту и охраняют отдыхающих от ... 10 10 8
Торрент: Зарегистрирован [2017-11-01 11:39] · скачан: 105 раз
Статус: √ проверено
Размер: 46.92 GB
Как cкачать? Как скачать Спасатели Малибу через торрент | qTorrent

% Раздел Тема Автор DL S | L
Зарубежные сериалы [ 94.34 GB ] Спасатели Малибу / Baywatch / Сезон: 3 / Серии: 1-22 из 22 [1992-1993 WEB-DL 1080p] [MVO] killermax2013 Скачать
1 | 0
Зарубежные сериалы [ 89.55 GB ] Спасатели Малибу / Baywatch / Сезон: 8 / Серии: 1-22 из 22 [1997-1998 WEB-DL 1080p] MVO [Живи!] bober100 Скачать
1 | 0
Зарубежные сериалы [ 89.58 GB ] Спасатели Малибу / Baywatch / Сезон: 7 / Серии: 1-22 из 22 [1996-1997 WEB-DL 1080p] [MVO] killermax2013 Скачать
1 | 0
Зарубежные сериалы [ 90.39 GB ] Спасатели Малибу / Baywatch / Сезон: 6 / Серии: 1-22 из 22 [1995-1996 WEB-DL 1080p] [MVO] killermax2013 Скачать
1 | 0
Зарубежные сериалы [ 92.62 GB ] Спасатели Малибу / Baywatch / Сезон: 5 / Серии: 1-22 из 22 [1994-1995 WEB-DL 1080p] MVO [Sony Turbo] bober100 Скачать
1 | 0
Зарубежные сериалы [ 93.18 GB ] Спасатели Малибу / Baywatch / Сезон: 4 / Серии: 1-22 из 22 [1993-1994 WEB-DL 1080p] [MVO] killermax2013 Скачать
1 | 0
Зарубежные сериалы [ 94.08 GB ] Спасатели Малибу / Baywatch / Сезон: 2 / Серии: 1-22 из 22 [1991-1992 WEB-DL 1080p] [MVO] killermax2013 Скачать
1 | 0

28-11-2019 20:33  

Отключить всю рекламу на сайте

18-11-2017 15:56 Спасатели Малибу Скачать торрент  

к просмотру крайне не рекомендую.это издевательство над зрителем.piratbit.pw



11-03-2018 16:28 Спасатели Малибу Скачать торрент  

Нормальный фильм. Посмотреть не напрягая мозги иногда тоже полезно. Не все же отгадывать загадки вместе с Робертом Ленгдоном.piratbit.pw



    Дорогой пользователь! Огромная просьба, поблагодарите релизера, оцените раздачу и оставьте свои комментарий, если Вы скачали Спасатели Малибу через торрент бесплатно! Внесите свою лепту в развитие PiratBit!
    Комментировать посты могут только пользователи прошедшие не сложную регистрацию
    Показать сообщения:    

    Спасатели Малибу через торрент
    Скачать бесплатно Спасатели Малибу
    Спасатели Малибу скачать торрент
    Спасатели Малибу смотреть онлайн
    Cкачать фильм Спасатели Малибу бесплатно
    Спасатели Малибу скачать торрент в хорошем качестве
    Спасатели Малибу смотреть онлайн бесплатно в хорошем качестве


    Вы не можете начинать темы
    Вы не можете отвечать на сообщения
    Вы не можете редактировать свои сообщения
    Вы не можете удалять свои сообщения
    Вы не можете голосовать в опросах
    Вы не можете прикреплять файлы к сообщениям
    Вы можете скачивать файлы