1 сезон

1 сезон

iTunes

1

КиноПоиск HD

Кинопоиск HD

iTunes

13

1 сезон

RePack

30

Ultimate

ВАЖНО

ИГРА 18+

pack

RePack

MK11
pack

Легкие деньги

RePack

jed

RePack

fifa19

RePack

RDR2

RePack

NEED FOR SPEED™ PAYBACK

4 сезон

9 сезон

Бесстыжие 9 сезон

Все сериалы

все сериалы на PB.wtf

RePack

FAR CRY 5
  
Magnet ссылка

Потомственное проклятие / The Offspring (Джефф Барр) [1987, ужасы, боевик, триллер, драма, BDRip 720p by msltel] AVO piratbit.pw

Потомственное проклятие через торрент piratbit.pw

Размер: 4.66 GB | Добавлен: 3 года 5 мес. назад | Торрент скачан:13 раз
Скачать  

31-10-2017 10:58 Потомственное проклятие Скачать торрент  

Название: Потомственное проклятие
Оригинальное название: The Offspring
Год выпуска: 1987
Страна: США
Жанр: ужасы, боевик, триллер, драма
Продолжительность: 01:39:53
Перевод: авторский
Режиссер: Джефф Барр
В ролях: Винсент Прайс, Клу Гулагер, Терри Кайзер, Гарри Цезар, Розалинд Кэш, Кэмерон Митчелл, Сьюзен Тайррелл, Мартин Бесвик, Рон Брукс, Мириам Байрд-Нетери

О фильме: В городке Олдфилд казнят некую Кэтрин Уайт, признанную виновной во множестве убийств. Тем же вечером к её дяде, библиотекарю, Джулиану приезжает репортёрша, планируя поговорить по поводу племянницы. Не настроенный давать интервью, Джулиан заявляет журналистке, что преступления в Олдфилде со смертью Кэтрин всё равно не закончатся, поскольку на самом городе издавна лежит проклятье. В подтверждение своих слов он рассказывает ей четыре истории о ненормальных жителях Олдфилда. Первая — про одинокого старика, уставшего ухаживать за больной сестрой и решившего найти себе новую подругу жизни. Вторая — про раненого бандита, спасённого на болотах подозрительным негром-старожилом. Героиня третьей байки влюбляется в карнавального поедателя стекла — звезду не совсем обычного цирка. Последняя история разворачивается на заре основания Олдфилда, во времена гражданской войны, когда несколько солдат-северян попадают в плен к странной секте озлобленных и вооружённых детей...



Качество: BDRip 720p
Формат: MKV
Видео: MPEG-4 AVC, 6030 Kбит/с, 1280x694, 23.976 кадр/с
Аудио 1: русский, AC3, 192 kbps, 2 ch, 48 kHz [авторский, Вячеслав Котов]
Аудио 2: английский, AC3, 448 kbps, 2 ch, 48 kHz [оригинал]
Субтитры: английские
Неименованные главы/чаптеры.
Общее
Уникальный идентификатор : 185373164769454632906275251095888284602 (0x8B7592A904FACFFCB3562249435D4BBA)
Полное имя : D:\Video\Потомственное проклятие.1987.BDRip.720p by msltel.mkv
Формат : Matroska
Версия формата : Version 4 / Version 2
Размер файла : 4,66 Гбайт
Продолжительность : 1 ч. 39 м.
Общий поток : 6671 Кбит/сек
Название фильма : Rip by msltel
Дата кодирования : UTC 2017-10-31 09:43:03
Программа кодирования : mkvmerge v8.2.0 ('World of Adventure') 64bit
Библиотека кодирования : libebml v1.3.1 + libmatroska v1.4.2

Видео
Идентификатор : 1
Формат : AVC
Формат/Информация : Advanced Video Codec
Профиль формата : High@L4.1
Параметр CABAC формата : Да
Параметр RefFrames формата : 9 кадров
Идентификатор кодека : V_MPEG4/ISO/AVC
Продолжительность : 1 ч. 39 м.
Битрейт : 6030 Кбит/сек
Ширина : 1280 пикселей
Высота : 694 пикселя
Соотношение сторон : 1,85:1
Режим частоты кадров : Постоянный
Частота кадров : 23,976 (24000/1001) кадра/сек
Цветовое пространство : YUV
Субдискретизация насыщенности : 4:2:0
Битовая глубина : 8 бит
Тип развёртки : Прогрессивная
Бит/(Пиксели*Кадры) : 0.283
Размер потока : 4,21 Гбайт (90%)
Библиотека кодирования : x264 core 146 r2538 121396c
Настройки программы : cabac=1 / ref=9 / deblock=1:-3:-2 / analyse=0x3:0x113 / me=umh / subme=11 / psy=1 / psy_rd=1.00:0.15 / mixed_ref=1 / me_range=32 / chroma_me=1 / trellis=2 / 8x8dct=1 / cqm=0 / deadzone=21,11 / fast_pskip=0 / chroma_qp_offset=-3 / threads=6 / lookahead_threads=1 / sliced_threads=0 / nr=0 / decimate=1 / interlaced=0 / bluray_compat=0 / constrained_intra=0 / bframes=7 / b_pyramid=2 / b_adapt=2 / b_bias=0 / direct=1 / weightb=1 / open_gop=0 / weightp=2 / keyint=230 / keyint_min=23 / scenecut=40 / intra_refresh=0 / rc_lookahead=40 / rc=crf / mbtree=0 / crf=20.0 / qcomp=0.60 / qpmin=0 / qpmax=69 / qpstep=4 / vbv_maxrate=62500 / vbv_bufsize=78125 / crf_max=0.0 / nal_hrd=none / filler=0 / ip_ratio=1.40 / pb_ratio=1.30 / aq=1:1.00
Язык : English
Default : Да
Forced : Нет

Аудио #1
Идентификатор : 2
Формат : AC-3
Формат/Информация : Audio Coding 3
Параметр Endianness формата : Big
Идентификатор кодека : A_AC3
Продолжительность : 1 ч. 39 м.
Вид битрейта : Постоянный
Битрейт : 192 Кбит/сек
Каналы : 2 канала
Расположение каналов : Front: L R
Частота : 48,0 КГц
Частота кадров : 31,250 кадров/сек (1536 SPF)
Битовая глубина : 16 бит
Метод сжатия : С потерями
Размер потока : 137 Мбайт (3%)
Заголовок : Вячеслав Котов
Язык : Russian
ServiceKind/String : Complete Main
Default : Да
Forced : Нет

Аудио #2
Идентификатор : 3
Формат : AC-3
Формат/Информация : Audio Coding 3
Параметр Endianness формата : Big
Идентификатор кодека : A_AC3
Продолжительность : 1 ч. 39 м.
Вид битрейта : Постоянный
Битрейт : 448 Кбит/сек
Каналы : 2 канала
Расположение каналов : Front: L R
Частота : 48,0 КГц
Частота кадров : 31,250 кадров/сек (1536 SPF)
Битовая глубина : 16 бит
Метод сжатия : С потерями
Размер потока : 320 Мбайт (7%)
Заголовок : original
Язык : English
ServiceKind/String : Complete Main
Default : Нет
Forced : Нет

Текст
Идентификатор : 4
Формат : UTF-8
Идентификатор кодека : S_TEXT/UTF8
Идентификатор кодека/Информация : UTF-8 Plain Text
Продолжительность : 1 ч. 36 м.
Битрейт : 47 бит/сек
ElementCount : 1228
Размер потока : 33,5 Кбайт (0%)
Заголовок : английские
Язык : English
Default : Нет
Forced : Нет

Меню
00:00:00.000 : en:00:00:00.000
00:08:20.709 : en:00:08:20.709
00:34:27.774 : en:00:34:27.774
00:56:52.868 : en:00:56:52.868
01:15:08.796 : en:01:15:08.796
01:34:50.226 : en:01:34:50.226
01:37:16.664 : en:01:37:16.664
piratbit.pw



Скачать Потомственное проклятие через торрент http://s019.radikal.ru/i641/1710/58/f89aee7463f4.png Скачать фильм Потомственное проклятие через торрент бесплантно в хорошем качестве О фильме: В городке Олдфилд казнят некую Кэтрин Уайт, признанную виновной во множестве убийств. Тем же вечером к её дяде, библиотекарю, ... 10 10 3
Info! Золотая раздача, скачанное не засчитывается.
Торрент: Зарегистрирован [2017-10-31 10:58] · скачан: 13 раз
Статус: √ проверено
Размер: 4.66 GB
Как cкачать? Как скачать Потомственное проклятие через торрент | UTorrent

% Раздел Тема Автор DL S | L
Фильмы с авторской озвучкой [ 11.63 GB ] Потомственное проклятие / The Offspring [1987 BDRip 1080p by msltel] AVO msltel Скачать
1 | 0

28-11-2019 20:33  

Отключить всю рекламу на сайте

27-11-2017 17:49 Потомственное проклятие Скачать торрент  

Добротный ужастик для неискушённых зрителей Советского Союза!В те времена пугал,сейчас забавляет!Ностальгия!piratbit.pw



    Дорогой пользователь! Огромная просьба, поблагодарите релизера, оцените раздачу и оставьте свои комментарий, если Вы скачали Потомственное проклятие через торрент бесплатно! Внесите свою лепту в развитие PiratBit!
    Комментировать посты могут только пользователи прошедшие не сложную регистрацию
    Показать сообщения:    

    Потомственное проклятие через торрент
    Скачать бесплатно Потомственное проклятие
    Потомственное проклятие скачать торрент
    Потомственное проклятие смотреть онлайн
    Cкачать фильм Потомственное проклятие бесплатно
    Потомственное проклятие скачать торрент в хорошем качестве
    Потомственное проклятие смотреть онлайн бесплатно в хорошем качестве


    Вы не можете начинать темы
    Вы не можете отвечать на сообщения
    Вы не можете редактировать свои сообщения
    Вы не можете удалять свои сообщения
    Вы не можете голосовать в опросах
    Вы не можете прикреплять файлы к сообщениям
    Вы можете скачивать файлы