1 сезон

1 сезон

iTunes

1

КиноПоиск HD

Кинопоиск HD

iTunes

13

1 сезон

RePack

30

Новинка

ВАЖНО

ИГРА 18+

pack

RePack

MK11
pack

Легкие деньги

RePack

jed

RePack

fifa19

RePack

RDR2

RePack

NEED FOR SPEED™ PAYBACK

4 сезон

9 сезон

Бесстыжие 9 сезон

Все сериалы

все сериалы на PB.wtf

RePack

FAR CRY 5
  
Magnet ссылка

Ночь ужасов, часть 1 / A Night of Horror Volume 1 (Босси Бэйкер, Николас Колла, Дэниэл Даперис) [2015, ужасы, триллер, BDRip-AVC] АVO [BadBajo] piratbit.pw

Ночь ужасов, часть 1 через торрент piratbit.pw

Раздают: 1 [ 0 KB/s ]
Размер: 1.4 GB | Добавлен: 3 года 5 мес. назад | Торрент скачан:52 раза
Скачать  

29-10-2017 13:35 Ночь ужасов, часть 1 Скачать торрент  

Ночь ужасов, часть 1
A Night of Horror Volume 1


Страна: США, Канада, Австралия
Жанр: ужасы, триллер

Год выпуска: 2015
Продолжительность: 01:27:56

Перевод: Авторский (одноголосый, закадровый) [BadBajo]
Субтитры: нет
Оригинальная аудиодорожка: нет

Режиссер: Босси Бэйкер / Bossi Baker, Николас Колла / Nicholas Colla, Дэниэл Даперис / Daniel Daperis

В ролях: Бьянка Брэди, Эмили Уитон, Джессика Гауэр, Теган Хиггинботэм, Pauline Grace, Питер Хиггинсон, Дэвид МакРэй, Джон Флаус, Рози Кеог, Стив Хейден, Кейли Колфилд, Дэниэл Даперис

Описание:
Сборник короткометражек от режиссёров фильмов ужасов. Зомби, демоны, призраки, злобные косметологи - всё в одном флаконе. Готовы ли вы пройти через весь этот кошмар?



Релиз:

Автор рипа: stalkerok | Моя группа

Сэмпл

Качество видео: BDRip-AVC [A.Night.of.Horror.Volume.1.2015.1080p.BluRay.REMUX.AVC.DTS-HD.MA.5.1-FGT]
Формат видео: MKV
Видео кодек: AVC
Аудио кодек: AC3
Видео: 1823 Кбит/сек, 1152x490 (2.35:1), 25 кадр/сек, AVC
Аудио: русский, 448 Кбит/сек, 48 КГц, 5.1, AC3
Навигация по главам: есть

x264 [info]: frame I:831 Avg QP:16.22 size: 47979
x264 [info]: frame P:27709 Avg QP:19.58 size: 17376
x264 [info]: frame B:103375 Avg QP:20.43 size: 6594

General
Unique ID : 194870940187784748206899729801655425456 (0x929AC72471E434B5BCFC08AD8B7919B0)
Complete name : M:\!Rips2017\A Night of Horror Volume 1\A.Night.of.Horror.Volume.1.2015.BDRip-AVC.RUS.stalkerok.new-team.mkv
Format : Matroska
Format version : Version 4 / Version 2
File size : 1.40 GiB
Duration : 1 h 27 min
Overall bit rate : 2 274 kb/s
Movie name : A Night of Horror Volume 1 (2015) (Rip by stalkerok)
Encoded date : UTC 2017-10-29 13:11:16
Writing application : mkvmerge v8.6.1 ('Flying') 64bit
Writing library : libebml v1.3.3 + libmatroska v1.4.4

Video
ID : 1
Format : AVC
Format/Info : Advanced Video Codec
Format profile : High@L4.1
Format settings, CABAC : Yes
Format settings, ReFrames : 14 frames
Codec ID : V_MPEG4/ISO/AVC
Duration : 1 h 27 min
Bit rate : 1 824 kb/s
Width : 1 152 pixels
Height : 490 pixels
Display aspect ratio : 2.35:1
Frame rate mode : Constant
Frame rate : 25.000 FPS
Color space : YUV
Chroma subsampling : 4:2:0
Bit depth : 8 bits
Scan type : Progressive
Bits/(Pixel*Frame) : 0.129
Stream size : 1.12 GiB (80%)
Title : A Night of Horror Volume 1 (2015) (Rip by stalkerok)
Writing library : x264 core 150 r2833kMod df79067
Encoding settings : cabac=1 / ref=14 / deblock=1:-3:-2 / analyse=0x3:0x133 / me=umh / subme=11 / psy=1 / fade_compensate=0.00 / psy_rd=1.00:0.00 / mixed_ref=1 / me_range=32 / chroma_me=1 / trellis=2 / 8x8dct=1 / cqm=0 / deadzone=21,11 / fast_pskip=0 / chroma_qp_offset=-2 / threads=12 / lookahead_threads=3 / sliced_threads=0 / nr=0 / decimate=1 / interlaced=0 / bluray_compat=0 / constrained_intra=0 / bframes=14 / b_pyramid=2 / b_adapt=2 / b_bias=0 / direct=3 / weightb=1 / open_gop=0 / weightp=2 / keyint=250 / keyint_min=25 / scenecut=40 / intra_refresh=0 / rc_lookahead=60 / rc=crf / mbtree=0 / crf=19.3000 / qcomp=0.65 / qpmin=0 / qpmax=69 / qpstep=4 / vbv_maxrate=50000 / vbv_bufsize=62500 / crf_max=0.0 / nal_hrd=none / filler=0 / ip_ratio=1.40 / pb_ratio=1.30 / aq=3:0.80 / zones=122591,131914,q=34
Default : Yes
Forced : No

Audio
ID : 2
Format : AC-3
Format/Info : Audio Coding 3
Mode extension : CM (complete main)
Format settings, Endianness : Big
Codec ID : A_AC3
Duration : 1 h 27 min
Bit rate mode : Constant
Bit rate : 448 kb/s
Channel(s) : 6 channels
Channel positions : Front: L C R, Side: L R, LFE
Sampling rate : 48.0 kHz
Frame rate : 31.250 FPS (1536 spf)
Compression mode : Lossy
Stream size : 282 MiB (20%)
Language : Russian
Default : Yes
Forced : No

Menu
00:00:00.000 : en:Chapter 01
00:03:31.000 : en:Chapter 02
00:15:40.720 : en:Chapter 03
00:23:34.320 : en:Chapter 04
00:31:55.560 : en:Chapter 05
00:43:09.720 : en:Chapter 06
00:52:58.160 : en:Chapter 07
01:13:01.360 : en:Chapter 08
скриншот   скриншот   скриншот   скриншот   скриншот   скриншот   скриншот   скриншот  
piratbit.pw



Скачать Ночь ужасов, часть 1 через торрент http://i6.imageban.ru/out/2017/09/18/2ff75c0c358795c5946784cc1680714d.png Скачать фильм Ночь ужасов, часть 1 через торрент бесплантно в хорошем качестве Описание:Сборник короткометражек от режиссёров фильмов ужасов. Зомби, демоны, призраки, злобные косметологи - всё в одном флаконе. Готовы ... 7.7 10 3
Info! Золотая раздача, скачанное не засчитывается.
Торрент: Зарегистрирован [2017-10-29 13:35] · скачан: 52 раз
Статус: √ проверено
Размер: 1.4 GB
Как cкачать? Как скачать Ночь ужасов, часть 1 через торрент | UTorrent

% Раздел Тема Автор DL S | L
Фильмы с авторской озвучкой [ 747 MB ] Ночь ужасов часть 1 / A Night of Horror Volume 1 [2015 BDRip-AVC] АVO [BadBajo] sokol_ok Скачать
2 | 0
Фильмы с авторской озвучкой [ 1.29 GB ] Ночь ужасов часть 1 / A Night of Horror Volume 1 [2015 HDRip] AVO [BadBajo] bober100 Скачать
1 | 0
T Релизы по Парсеру [Игры, Сериалы и Фильмы и другое...] [ 7.72 GB ] Ночь ужасов часть 1 / A Night of Horror Volume 1 [2015 BDRip 1080p] VO [BadBajo] batonchik Скачать
1 | 0

28-11-2019 20:33  

Отключить всю рекламу на сайте

29-10-2017 13:46 Ночь ужасов, часть 1 Скачать торрент  

Топик был перенесен из форума Фильмы 2015 (Звук TS, Cam, VO, DVO) в форум Фильмы с авторской озвучкой


schultzpiratbit.pw



    Дорогой пользователь! Огромная просьба, поблагодарите релизера, оцените раздачу и оставьте свои комментарий, если Вы скачали Ночь ужасов, часть 1 через торрент бесплатно! Внесите свою лепту в развитие PiratBit!
    Комментировать посты могут только пользователи прошедшие не сложную регистрацию
    Показать сообщения:    

    Ночь ужасов, часть 1 через торрент
    Скачать бесплатно Ночь ужасов, часть 1
    Ночь ужасов, часть 1 скачать торрент
    Ночь ужасов, часть 1 смотреть онлайн
    Cкачать фильм Ночь ужасов, часть 1 бесплатно
    Ночь ужасов, часть 1 скачать торрент в хорошем качестве
    Ночь ужасов, часть 1 смотреть онлайн бесплатно в хорошем качестве


    Вы не можете начинать темы
    Вы не можете отвечать на сообщения
    Вы не можете редактировать свои сообщения
    Вы не можете удалять свои сообщения
    Вы не можете голосовать в опросах
    Вы не можете прикреплять файлы к сообщениям
    Вы можете скачивать файлы